蓝光高清网

搜索
开启左侧

[其他] 舒适农场 Comfort.Farms.2020.1080p.BluRay.REMUX.AVC.DTS-HD.MA.5.1-FGT 19.25GB

蓝鸟 发表于 2021-1-7 15:15:17 | 显示全部楼层 |阅读模式 来自: 中国重庆



译  名 舒适农场
片  名 Comfort Farms
年  代 2020
产  地 美国
类  别 纪录片
语  言 英语
上映日期 2020-06-09(美国)
IMDb评分  4.7/10 from 9 users
IMDb链接  https://www.imdb.com/title/tt11916044/
豆瓣评分 /10 from 0 users
豆瓣链接 https://movie.douban.com/subject/35294916/
片  长 77分钟
主  演 Scott Kennedy
简  介
  暂无相关剧情介绍


该资源信息参数
  • Video
  • ID                                       : 1
  • ID in the original source medium         : 4113 (0x1011)
  • Format                                   : AVC
  • Format/Info                              : Advanced Video Codec
  • Format profile                           : High@L4.1
  • Format settings                          : CABAC / 4 Ref Frames
  • Format settings, CABAC                   : Yes
  • Format settings, Reference frames        : 4 frames
  • Codec ID                                 : V_MPEG4/ISO/AVC
  • Duration                                 : 1 h 16 min
  • Bit rate mode                            : Constant
  • Bit rate                                 : 32.4 Mb/s
  • Nominal bit rate                         : 35.0 Mb/s
  • Width                                    : 1 920 pixels
  • Height                                   : 1 080 pixels
  • Display aspect ratio                     : 16:9
  • Frame rate mode                          : Constant
  • Frame rate                               : 23.976 (24000/1001) FPS
  • Color space                              : YUV
  • Chroma subsampling                       : 4:2:0
  • Bit depth                                : 8 bits
  • Scan type                                : Progressive
  • Bits/(Pixel*Frame)                       : 0.652
  • Stream size                              : 17.3 GiB (90%)
  • Language                                 : English
  • Default                                  : No
  • Forced                                   : No
  • Color range                              : Limited
  • Color primaries                          : BT.709
  • Transfer characteristics                 : BT.709
  • Matrix coefficients                      : BT.709
  • Original source medium                   : Blu-ray
  • Audio
  • ID                                       : 2
  • ID in the original source medium         : 4352 (0x1100)
  • Format                                   : DTS XLL
  • Format/Info                              : Digital Theater Systems
  • Commercial name                          : DTS-HD Master Audio
  • Codec ID                                 : A_DTS
  • Duration                                 : 1 h 16 min
  • Bit rate mode                            : Variable
  • Bit rate                                 : 3 513 kb/s
  • Channel(s)                               : 6 channels
  • Channel layout                           : C L R Ls Rs LFE
  • Sampling rate                            : 48.0 kHz
  • Frame rate                               : 93.750 FPS (512 SPF)
  • Bit depth                                : 24 bits
  • Compression mode                         : Lossless
  • Stream size                              : 1.88 GiB (10%)
  • Title                                    : DTS-HD MA 5.1
  • Language                                 : English
  • Default                                  : Yes
  • Forced                                   : No
  • Original source medium                   : Blu-ray
  • Text #1
  • ID                                       : 3
  • Format                                   : UTF-8
  • Codec ID                                 : S_TEXT/UTF8
  • Codec ID/Info                            : UTF-8 Plain Text
  • Duration                                 : 1 h 16 min
  • Bit rate                                 : 90 b/s
  • Count of elements                        : 1238
  • Stream size                              : 50.3 KiB (0%)
  • Title                                    : English-SRT
  • Language                                 : English
  • Default                                  : Yes
  • Forced                                   : No
  • Text #2
  • ID                                       : 4
  • ID in the original source medium         : 4608 (0x1200)
  • Format                                   : PGS
  • Muxing mode                              : zlib
  • Codec ID                                 : S_HDMV/PGS
  • Codec ID/Info                            : Picture based subtitle format used on BDs/HD-DVDs
  • Duration                                 : 1 h 16 min
  • Bit rate                                 : 51.3 kb/s
  • Count of elements                        : 2568
  • Stream size                              : 28.0 MiB (0%)
  • Title                                    : English-PGS
  • Language                                 : English
  • Default                                  : No
  • Forced                                   : No
  • Original source medium                   : Blu-ray
  • Menu
  • 00:00:00.000                             : en:Chapter 01
  • 00:10:15.573                             : en:Chapter 02
  • 00:19:23.245                             : en:Chapter 03
  • 00:30:17.148                             : en:Chapter 04
  • 00:40:09.949                             : en:Chapter 05
  • 00:50:23.770                             : en:Chapter 06
  • 01:00:16.529                             : en:Chapter 07
  • 01:13:48.090                             : en:Chapter 08

复制代码










蓝光高清网提示您  点击下方附件名称  马上开始下载

舒适农场 Comfort.Farms.2020.1080p.BluRay.REMUX.AVC.DTS-HD.MA.5.1-FGT 19.25GB

Comfort.Farms.2020.1080p.BluRay.REMUX.AVC.DTS-HD.MA.5.1-FGT.torrent ( 96.77 KB )




               
加入蓝光高清网VIP会员  无限制下载本站所有资源---点这里

资源下载、资源播放、字幕使用、无法下载等常见问题---点这里
回复

使用道具 举报

全部回复2 显示全部楼层
gdlmxia 发表于 2021-1-12 09:21:57 | 显示全部楼层 来自: 中国广东惠州
太好啦&萬分感謝版主的無私發佈分享%
回复 支持 反对

使用道具 举报

Sam444895 发表于 2021-8-23 22:57:43 | 显示全部楼层 来自: 中国广东
萬分感謝版主的無私發佈分享
回复 支持 反对

使用道具 举报

声明:您在社区发表的所有信息仅代表用户个人观点,与本网站立场无关,希望各位烧友理性发言,不发表违法国家法律禁止的话题。

您需要登录后才可以回帖 登录 | 立即注册

本版积分规则

联系客服 关注微信 下载APP 返回顶部 返回列表