蓝光高清网

搜索
开启左侧

[剧情片] 幸福相邻 Happiness.Adjacent.2018.1080p.WEBRip.x264-RARBG 1.83GB

蓝鸟 发表于 2021-1-7 18:14:31 | 显示全部楼层 |阅读模式 来自: 中国重庆



译  名 幸福相邻
片  名 Happiness Adjacent
年  代 2017
产  地 美国
类  别 剧情
语  言 英语
IMDb评分  6.0/10 from 152 users
IMDb链接  https://www.imdb.com/title/tt6902722
豆瓣评分 0/10 from 0 users
豆瓣链接 https://movie.douban.com/subject/27132704/
导  演 罗伯·威廉姆斯 Rob Williams
编  剧 罗伯·威廉姆斯 Rob Williams
主  演 瑞秋·艾里格 Rachel Alig


标  签 同性 | 美国 | 约炮 | 爱情 | 游轮 | 婚姻

简  介  

  影片讲述了汉克和库尔特之间的浪漫故事。汉克是一个善良的犹太男孩,他绝对不是在寻找爱情。两人在热带度假胜地相遇,同性恋汉克独自旅行,双性恋库尔特与妻子凯特度假,凯特似乎对丈夫的婚外情一无所知。http://www.soapgay.com/video/play/2017-1-1.html



该资源信息参数
  • Video
  • ID                                       : 1
  • Format                                   : AVC
  • Format/Info                              : Advanced Video Codec
  • Format profile                           : High@L4.1
  • Format settings                          : CABAC / 4 Ref Frames
  • Format settings, CABAC                   : Yes
  • Format settings, Reference frames        : 4 frames
  • Codec ID                                 : avc1
  • Codec ID/Info                            : Advanced Video Coding
  • Duration                                 : 1 h 35 min
  • Bit rate                                 : 2 500 kb/s
  • Width                                    : 1 920 pixels
  • Height                                   : 1 080 pixels
  • Display aspect ratio                     : 16:9
  • Frame rate mode                          : Constant
  • Frame rate                               : 29.970 (29970/1000/45778) FPS
  • Color space                              : YUV
  • Chroma subsampling                       : 4:2:0
  • Bit depth                                : 8 bits
  • Scan type                                : Progressive
  • Bits/(Pixel*Frame)                       : 0.040
  • Stream size                              : 1.67 GiB (91%)
  • Writing library                          : x264 core 152 r2851M ba24899
  • Encoding settings                        : cabac=1 / ref=4 / deblock=1:-1:-1 / analyse=0x3:0x113 / me=umh / subme=9 / psy=1 / psy_rd=1.00:0.15 / mixed_ref=1 / me_range=24 / chroma_me=1 / trellis=2 / 8x8dct=1 / cqm=0 / deadzone=21,11 / fast_pskip=1 / chroma_qp_offset=-3 / threads=16 / lookahead_threads=4 / sliced_threads=0 / nr=0 / decimate=1 / interlaced=0 / NDU3Nzg= / bluray_compat=0 / constrained_intra=0 / bframes=3 / b_pyramid=2 / b_adapt=2 / b_bias=0 / direct=3 / weightb=1 / open_gop=0 / weightp=2 / keyint=250 / keyint_min=25 / scenecut=40 / intra_refresh=0 / rc_lookahead=50 / rc=2pass / mbtree=1 / bitrate=2500 / ratetol=1.0 / qcomp=0.60 / qpmin=0 / qpmax=69 / qpstep=4 / cplxblur=20.0 / qblur=0.5 / vbv_maxrate=31250 / vbv_bufsize=31250 / nal_hrd=none / filler=0 / NDU3Nzg=feCb3SYgnbojFoo / ip_ratio=1.40 / aq=3:1.00
  • Encoded date                             : UTC 2020-12-24 12:42:43
  • Tagged date                              : UTC 2020-12-24 12:42:43
  • Codec configuration box                  : avcC
  • Audio
  • ID                                       : 2
  • Format                                   : AAC LC
  • Format/Info                              : Advanced Audio Codec Low Complexity
  • Codec ID                                 : mp4a-40-2
  • Duration                                 : 1 h 35 min
  • Bit rate mode                            : Constant
  • Bit rate                                 : 224 kb/s
  • Channel(s)                               : 2 channels
  • Channel layout                           : L R
  • Sampling rate                            : 48.0 kHz
  • Frame rate                               : 46.875 FPS (1024 SPF)
  • Compression mode                         : Lossy
  • Stream size                              : 153 MiB (8%)
  • Language                                 : English
  • Default                                  : Yes
  • Alternate group                          : 1
  • Encoded date                             : UTC 2020-12-24 12:42:43
  • Tagged date                              : UTC 2020-12-24 12:42:43

复制代码











蓝光高清网提示您  点击下方附件名称  马上开始下载

幸福相邻 Happiness.Adjacent.2018.1080p.WEBRip.x264-RARBG 1.83GB

Happiness.Adjacent.2018.1080p.WEBRip.x264-RARBG.torrent ( 18.86 KB )




               
加入蓝光高清网VIP会员  无限制下载本站所有资源---点这里

资源下载、资源播放、字幕使用、无法下载等常见问题---点这里
回复

使用道具 举报

全部回复0 显示全部楼层

声明:您在社区发表的所有信息仅代表用户个人观点,与本网站立场无关,希望各位烧友理性发言,不发表违法国家法律禁止的话题。

您需要登录后才可以回帖 登录 | 立即注册

本版积分规则

联系客服 关注微信 下载APP 返回顶部 返回列表