蓝光高清网

搜索
开启左侧

[动作片] 龙桥/魔鬼骇客 Bridge.Of.Dragons.1999.1080p.AMZN.WEBRip.DDP2.0.x264-pawel2006 9.11GB

蓝鸟 发表于 2021-1-12 12:18:44 | 显示全部楼层 |阅读模式 来自: 中国重庆
20190801120031.jpg


译  名 龙桥 / 魔鬼骇客
片  名 Bridge of Dragons
年  代 1999
产  地 美国
类  别 动作 / 爱情 / 科幻 / 战争
上映日期 1999-06-30
IMDb评分  4.8/10 from 2506 users
IMDb链接  https://www.imdb.com/title/tt0194722
豆瓣评分 5.4/10 from 91 users
豆瓣链接 https://movie.douban.com/subject/1292489/
主  演 杜夫·龙格尔 Dolph Lundgren

标  签 动作 | 美国 | Dolph_Lundgren | 1999 | 美国片 | 电影 | C-北美-美国 | 观影2001
简  介  
  The tough and cold mercenary Warchild, is working for the man who took care of his war training and upbringing, the greedy General Ruechang. Ruechang is planning to take over the country by marrying Princess Halo. But Halo discovers that Ruechang killed her father to gain more power than he had working for the King, so she decides to run away. Warchild is the one who has to bring her back to Ruechang, but the one thing no one counted on happens... Warchild and Halo falls in love, and together they take on the forces of Ruechang...@www.molikan.com
  谷歌为您翻译:
  艰难而又冷酷的雇佣军沃里德(Warchild)正在为他的战争训练和养育工作的那个贪婪的常昌将军工作。 Ruechang计划与Halo公主结婚,以占领整个国家。但是Halo发现Ruechang杀死了她的父亲以获得比他为国王工作更多的权力,因此她决定逃跑。 Warchild是必须将她带回Ruechang的人,但没有人指望发生的一件事... Warchild和Halo坠入爱河,他们共同承担了Ruechang的力量... @ www.molikan.com
  腾讯为您翻译:
  这位冷酷而冷酷的雇佣兵Warchild正在为那个照顾他的战争训练和教养的人工作,贪婪的将军Ruechang。。。。
  本站为您翻译:
  冷酷无情的唯利是图的沃查尔德,正在为一个照顾他的战争训练和成长的人工作,贪婪的瑞昌将军。瑞昌正计划通过与光环公主结婚来接管这个国家。但光环发现吕昌杀了她的父亲,以获得比他为国王工作更多的权力,所以她决定逃跑。Warchild 是那个必须把她带回吕昌的人,但是没有人指望的事情发生了... Warchild 和 Halo 坠入了爱河,他们一起对抗着 Ruechang...@www. molikan. com 的力量


该资源信息参数
  • Video
  • ID                                       : 1
  • Format                                   : AVC
  • Format/Info                              : Advanced Video Codec
  • Format profile                           : High@L4
  • Format settings                          : CABAC / 4 Ref Frames
  • Format settings, CABAC                   : Yes
  • Format settings, Reference frames        : 4 frames
  • Codec ID                                 : V_MPEG4/ISO/AVC
  • Duration                                 : 1 h 31 min
  • Bit rate                                 : 14.0 Mb/s
  • Width                                    : 1 920 pixels
  • Height                                   : 1 040 pixels
  • Display aspect ratio                     : 1.85:1
  • Frame rate mode                          : Constant
  • Frame rate                               : 24.000 FPS
  • Color space                              : YUV
  • Chroma subsampling                       : 4:2:0
  • Bit depth                                : 8 bits
  • Scan type                                : Progressive
  • Bits/(Pixel*Frame)                       : 0.292
  • Stream size                              : 8.97 GiB (98%)
  • Default                                  : Yes
  • Forced                                   : No
  • Color range                              : Limited
  • Color primaries                          : BT.709
  • Transfer characteristics                 : BT.709
  • Matrix coefficients                      : BT.709
  • Audio
  • ID                                       : 2
  • Format                                   : E-AC-3
  • Format/Info                              : Enhanced AC-3
  • Commercial name                          : Dolby Digital Plus
  • Codec ID                                 : A_EAC3
  • Duration                                 : 1 h 31 min
  • Bit rate mode                            : Constant
  • Bit rate                                 : 224 kb/s
  • Channel(s)                               : 2 channels
  • Channel layout                           : L R
  • Sampling rate                            : 48.0 kHz
  • Frame rate                               : 31.250 FPS (1536 SPF)
  • Compression mode                         : Lossy
  • Stream size                              : 147 MiB (2%)
  • Title                                    : English
  • Language                                 : English
  • Service kind                             : Complete Main
  • Default                                  : No
  • Forced                                   : No

复制代码



20190801120031.jpg

20190801120031.jpg

20190801120031.jpg


蓝光高清网提示您  点击下方附件名称  马上开始下载

龙桥/魔鬼骇客 Bridge.Of.Dragons.1999.1080p.AMZN.WEBRip.DDP2.0.x264-pawel2006 9.11GB

Bridge.Of.Dragons.1999.1080p.AMZN.WEBRip.DDP2.0.x264-pawel2006.torrent ( 46.11 KB )




               
加入蓝光高清网VIP会员  无限制下载本站所有资源---点这里

资源下载、资源播放、字幕使用、无法下载等常见问题---点这里
回复

使用道具 举报

全部回复0 显示全部楼层

声明:您在社区发表的所有信息仅代表用户个人观点,与本网站立场无关,希望各位烧友理性发言,不发表违法国家法律禁止的话题。

您需要登录后才可以回帖 登录 | 立即注册

本版积分规则

联系客服 关注微信 下载APP 返回顶部 返回列表