蓝光高清网

搜索
开启左侧

[动画片] 咪咪与古山龙 Mimi.And.The.Mountain.Dragon.2019.1080p.AMZN.WEBRip.DDP2.0.x264-Cinefeel

蓝鸟 发表于 2021-1-12 12:56:28 | 显示全部楼层 |阅读模式 来自: 中国重庆
20190801120031.jpg


译  名 咪咪与古山龙
片  名 Mimi and the Mountain Dragon
年  代 2019
产  地 英国
类  别 动画 / 短片
语  言 英语
上映日期 2019-12-26(英国)
IMDb评分  6.7/10 from 78 users
IMDb链接  https://www.imdb.com/title/tt10831338
豆瓣评分 0/10 from 0 users
豆瓣链接 https://movie.douban.com/subject/34906665/
集  数 1
片  长 25分钟
编  剧 迈克尔·莫波格 Michael Morpurgo
标  签 英国 | 动画 | 短片 | BBC | 动画短片 | 2019 | 治愈 | 奇幻
简  介  
  A special animated adaptation of Sir Michael Morpurgo’s children’s book Mimi And The Mountain Dragon.Mimi And The Mountain Dragon is the story about a village that quakes in feature of the mighty Mountain Dragon. One winter, a shy little girl called Mimi finds a baby dragon asleep in her family woodshed. Mimi takes the perilous journey through the blizzard and darkness to return the baby dragon to her mother, whom all the villagers fear.Following an introduction by the award-winning writer himself, Sir Michael Morpurgo, the film is narrated throughout by an original score by Oscar-winning composer Rachel Portman performed by the BBC Philharmonic and featuring singers from the Hallé’s family of choirs. The animation is based on original drawings by Emily Gravett and has been adapted for the screen by novelist, poet and playwright Owen Sheers.Mimi And The Mountain Dragon was commissioned by Head of BBC Music TV Commissioning Jan Younghusband, for Charlotte Moore, Director of BBC Content. The project is also supported by Alice Webb, Director of BBC Children’s & Education. The Executive Producer is Leopard Picture’s Chief Creative Officer Kristian Smith, and Phil Chalk from Bafta Award-winning studio Factory.
  谷歌为您翻译:
  迈克尔·莫普戈爵士(Michael Morpurgo)的儿童读物《咪咪与山龙》的特殊动画改编。咪咪与山龙的故事讲述的是一个村庄,震撼着强大的山龙。一个冬天,一个叫咪咪(Mimi)的害羞小女孩在她的家庭小木屋里发现了一条睡着的小龙。咪咪(Mimi)经历了暴风雪和黑暗的危险旅程,将小龙带回了所有村民都害怕的母亲那里。在获奖作家本人迈克尔·莫普尔戈爵士(Michael Morpurgo)的介绍下,这部电影的原作由由BBC爱乐乐团表演的获得奥斯卡奖的作曲家雷切尔·波特曼(Rachel Portman)表演了哈尔合唱团家庭歌手。该动画基于艾米丽·格雷维特(Emily Gravett)的原始绘画,并已被小说家,诗人和剧作家欧文·谢尔斯(Owen Sheers)改编到银幕上。内容。该项目还得到了BBC儿童基金会主任Alice Webb的支持。
  腾讯为您翻译:
  。一个冬天,一个叫咪咪的害羞的小女孩发现了一只婴儿龙在她家里睡着了。。。该项目还得到了bbc儿童基金会-教育学院主任alice韦布的支持。执行制片人是豹图片?的首席创意官Kristian史密斯,和菲尔Chalk来自Bafta获奖工作室工厂。


该资源信息参数
  • Video
  • ID                                       : 1
  • Format                                   : AVC
  • Format/Info                              : Advanced Video Codec
  • Format profile                           : High@L4
  • Format settings                          : CABAC / 4 Ref Frames
  • Format settings, CABAC                   : Yes
  • Format settings, Reference frames        : 4 frames
  • Codec ID                                 : V_MPEG4/ISO/AVC
  • Duration                                 : 24 min 34 s
  • Bit rate mode                            : Constant
  • Bit rate                                 : 5 207 kb/s
  • Nominal bit rate                         : 10 000 kb/s
  • Width                                    : 1 920 pixels
  • Height                                   : 1 080 pixels
  • Display aspect ratio                     : 16:9
  • Frame rate mode                          : Constant
  • Frame rate                               : 25.000 FPS
  • Color space                              : YUV
  • Chroma subsampling                       : 4:2:0
  • Bit depth                                : 8 bits
  • Scan type                                : Progressive
  • Bits/(Pixel*Frame)                       : 0.100
  • Stream size                              : 916 MiB (96%)
  • Default                                  : Yes
  • Forced                                   : No
  • Color range                              : Limited
  • Color primaries                          : BT.709
  • Transfer characteristics                 : BT.709
  • Matrix coefficients                      : BT.709
  • Audio
  • ID                                       : 2
  • Format                                   : E-AC-3
  • Format/Info                              : Enhanced AC-3
  • Commercial name                          : Dolby Digital Plus
  • Codec ID                                 : A_EAC3
  • Duration                                 : 24 min 34 s
  • Bit rate mode                            : Constant
  • Bit rate                                 : 224 kb/s
  • Channel(s)                               : 2 channels
  • Channel layout                           : L R
  • Sampling rate                            : 48.0 kHz
  • Frame rate                               : 31.250 FPS (1536 SPF)
  • Compression mode                         : Lossy
  • Stream size                              : 39.4 MiB (4%)
  • Title                                    : English
  • Language                                 : English
  • Service kind                             : Complete Main
  • Default                                  : Yes
  • Forced                                   : No

复制代码



20190801120031.jpg

20190801120031.jpg

20190801120031.jpg


蓝光高清网提示您  点击下方附件名称  马上开始下载

咪咪与古山龙 Mimi.And.The.Mountain.Dragon.2019.1080p.AMZN.WEBRip.DDP2.0.x264-Cinefeel 955.30MB

Mimi.And.The.Mountain.Dragon.2019.1080p.AMZN.WEBRip.DDP2.0.x264-Cinefeel.torrent ( 19.24 KB )




               
加入蓝光高清网VIP会员  无限制下载本站所有资源---点这里

资源下载、资源播放、字幕使用、无法下载等常见问题---点这里
回复

使用道具 举报

全部回复0 显示全部楼层

声明:您在社区发表的所有信息仅代表用户个人观点,与本网站立场无关,希望各位烧友理性发言,不发表违法国家法律禁止的话题。

您需要登录后才可以回帖 登录 | 立即注册

本版积分规则

联系客服 关注微信 下载APP 返回顶部 返回列表