蓝光高清网

搜索
开启左侧

[喜剧片] 公路狂飙 Adrenaline.Drive.1999.JAPANESE.1080p.AMZN.WEBRip.DDP2.0.x264-NOGRP 11.03GB

蓝鸟 发表于 2021-1-12 14:46:22 | 显示全部楼层 |阅读模式 来自: 中国重庆
20190801120031.jpg


译  名 公路狂飙 / Adorenarin doraibu / Adrenaline Drive
片  名 アドレナリンドライブ
年  代 1999
产  地 日本
类  别 喜剧
语  言 日语
上映日期 1999-02-18(柏林国际电影节) / 1999-06-12(日本)
IMDb评分  6.9/10 from 807 users
IMDb链接  https://www.imdb.com/title/tt0197213
豆瓣评分 7.0/10 from 406 users
豆瓣链接 https://movie.douban.com/subject/1788121/
片  长 112分钟
导  演 矢口史靖 Shinobu Yaguchi
编  剧 矢口史靖 Shinobu Yaguchi
主  演 安藤政信 Masanobu And?
       石田光 Hikari Ishida
       松重丰 Yutaka Matsushige
       诹访太朗 Tar? Suwa
       田中要次 Y?ji Tanaka
       瑞拉·阿芙罗狄蒂 Reila Aphrodite
       真野桐奈 Kirina Mano
       绪形干太 Kanta Ogata
       铃木卓尔 Takuji Suzuki
       德井优 Yu Tokui
       角替和枝 Kazue Tsunogae
       上田耕一 K?ichi Ueda
       长谷川朝晴 Tomoharu Hasegawa
       坂田聪 Tadashi Sakata
       六角慎司 Shinji Rokkaku

标  签 矢口史靖 | 日本 | 安藤政信 | 日本电影 | 青春 | 公路 | 1999 | 喜剧
简  介  
  简评:听名字就像是SABU的电影一样,其实很多元素都挺像SABU惯用的。矢口晴靖的这部电影也是同样的轻松有趣,从情节上稍嫌俗套,两个窝囊的小人物莫名其妙的捡到两亿日元,同时又是遭遇黑帮堵截,一路磕磕绊绊,机缘巧合,最终小男女终成一对,开着跑车四处开心去了。典型的大团圆结局,贵在开心,情节也一直很轻松,节奏又很紧凑,很有趣的一个电影。适合放松神经的时候观看。两人住大酒店,喝最贵的红酒,女孩买衣服、做头发,瞬间麻雀变凤凰,太YY的一个电影。难得开心。演员方面则由安滕政信和石田光搭档。


该资源信息参数
  • Video
  • ID                                       : 1
  • Format                                   : AVC
  • Format/Info                              : Advanced Video Codec
  • Format profile                           : High@L4
  • Format settings                          : CABAC / 4 Ref Frames
  • Format settings, CABAC                   : Yes
  • Format settings, Reference frames        : 4 frames
  • Codec ID                                 : V_MPEG4/ISO/AVC
  • Duration                                 : 1 h 50 min
  • Bit rate                                 : 14.0 Mb/s
  • Width                                    : 1 920 pixels
  • Height                                   : 1 040 pixels
  • Display aspect ratio                     : 1.85:1
  • Frame rate mode                          : Constant
  • Frame rate                               : 29.970 (30000/1001) FPS
  • Color space                              : YUV
  • Chroma subsampling                       : 4:2:0
  • Bit depth                                : 8 bits
  • Scan type                                : Progressive
  • Bits/(Pixel*Frame)                       : 0.234
  • Stream size                              : 10.9 GiB (98%)
  • Default                                  : Yes
  • Forced                                   : No
  • Color range                              : Limited
  • Color primaries                          : BT.709
  • Transfer characteristics                 : BT.709
  • Matrix coefficients                      : BT.709
  • Audio
  • ID                                       : 2
  • Format                                   : E-AC-3
  • Format/Info                              : Enhanced AC-3
  • Commercial name                          : Dolby Digital Plus
  • Codec ID                                 : A_EAC3
  • Duration                                 : 1 h 50 min
  • Bit rate mode                            : Constant
  • Bit rate                                 : 224 kb/s
  • Channel(s)                               : 2 channels
  • Channel layout                           : L R
  • Sampling rate                            : 48.0 kHz
  • Frame rate                               : 31.250 FPS (1536 SPF)
  • Compression mode                         : Lossy
  • Stream size                              : 178 MiB (2%)
  • Language                                 : Japanese
  • Service kind                             : Complete Main
  • Default                                  : Yes
  • Forced                                   : No
  • Text
  • ID                                       : 3
  • Format                                   : UTF-8
  • Codec ID                                 : S_TEXT/UTF8
  • Codec ID/Info                            : UTF-8 Plain Text
  • Duration                                 : 1 h 47 min
  • Bit rate                                 : 29 b/s
  • Count of elements                        : 955
  • Stream size                              : 23.1 KiB (0%)
  • Language                                 : English
  • Default                                  : Yes
  • Forced                                   : No

复制代码



20190801120031.jpg

20190801120031.jpg

20190801120031.jpg


蓝光高清网提示您  点击下方附件名称  马上开始下载

公路狂飙 Adrenaline.Drive.1999.JAPANESE.1080p.AMZN.WEBRip.DDP2.0.x264-NOGRP 11.03GB

Adrenaline.Drive.1999.JAPANESE.1080p.AMZN.WEBRip.DDP2.0.x264-NOGRP.torrent ( 55.73 KB )




               
加入蓝光高清网VIP会员  无限制下载本站所有资源---点这里

资源下载、资源播放、字幕使用、无法下载等常见问题---点这里
回复

使用道具 举报

全部回复0 显示全部楼层

声明:您在社区发表的所有信息仅代表用户个人观点,与本网站立场无关,希望各位烧友理性发言,不发表违法国家法律禁止的话题。

您需要登录后才可以回帖 登录 | 立即注册

本版积分规则

联系客服 关注微信 下载APP 返回顶部 返回列表