蓝光高清网

搜索
开启左侧

[喜剧片] 密歇根湖之怪兽 Lake.Michigan.Monster.2018.720p.BluRay.x264-ORBS 5.91GB

蓝鸟 发表于 2021-1-12 18:15:38 | 显示全部楼层 |阅读模式 来自: 中国重庆
20190801120031.jpg



译  名 密歇根湖之怪兽
片  名 Lake Michigan Monster
年  代 2018
产  地 美国
类  别 喜剧 / 悬疑 / 恐怖 / 奇幻 / 冒险
语  言 英语
上映日期 2018-10-24(Milwaukee Film Festival)
IMDb评分  5.4/10 from 203 users
IMDb链接  https://www.imdb.com/title/tt6748030
豆瓣评分 0/10 from 0 users
豆瓣链接 https://movie.douban.com/subject/34777365/
片  长 78分钟
标  签 喜剧 | comedy
简  介  
  An eccentric ship captain and a crew of specialists plot revenge against the most mysterious creature of the deep -- the Lake Michigan Monster.
  谷歌为您翻译:
  一位古怪的船长和一群专家密谋对深处最神秘的生物-密歇根湖怪兽进行复仇。
  腾讯为您翻译:
  一位古怪的船长和一群专家密谋报复最神秘的生物-密歇根湖怪兽。
  本站为您翻译:
  一位古怪的船长和一群专家正密谋对最神秘的深海生物——密歇根湖怪物进行报复。


该资源信息参数
  • Video
  • ID                                       : 1
  • Format                                   : AVC
  • Format/Info                              : Advanced Video Codec
  • Format profile                           : High@L4.1
  • Format settings                          : CABAC / 9 Ref Frames
  • Format settings, CABAC                   : Yes
  • Format settings, Reference frames        : 9 frames
  • Codec ID                                 : V_MPEG4/ISO/AVC
  • Duration                                 : 1 h 18 min
  • Bit rate                                 : 9 799 kb/s
  • Width                                    : 1 280 pixels
  • Height                                   : 720 pixels
  • Display aspect ratio                     : 16:9
  • Frame rate mode                          : Constant
  • Frame rate                               : 23.976 (24000/1001) FPS
  • Color space                              : YUV
  • Chroma subsampling                       : 4:2:0
  • Bit depth                                : 8 bits
  • Scan type                                : Progressive
  • Bits/(Pixel*Frame)                       : 0.443
  • Stream size                              : 5.36 GiB (91%)
  • Writing library                          : x264 core 161 r3027 4121277
  • Encoding settings                        : cabac=1 / ref=9 / deblock=1:-3:-3 / analyse=0x3:0x133 / me=umh / subme=10 / psy=1 / psy_rd=1.20:0.00 / mixed_ref=1 / me_range=24 / chroma_me=1 / trellis=2 / 8x8dct=1 / cqm=0 / deadzone=21,11 / fast_pskip=0 / chroma_qp_offset=-2 / threads=6 / lookahead_threads=1 / sliced_threads=0 / nr=0 / decimate=0 / interlaced=0 / bluray_compat=0 / constrained_intra=0 / bframes=8 / b_pyramid=2 / b_adapt=2 / b_bias=0 / direct=3 / weightb=1 / open_gop=0 / weightp=2 / keyint=250 / keyint_min=23 / scenecut=40 / intra_refresh=0 / rc_lookahead=60 / rc=crf / mbtree=1 / crf=23.0 / qcomp=0.60 / qpmin=0 / qpmax=69 / qpstep=4 / ip_ratio=1.40 / aq=3:0.90
  • Default                                  : Yes
  • Forced                                   : No
  • Color range                              : Limited
  • Matrix coefficients                      : BT.709
  • Audio #1
  • ID                                       : 2
  • Format                                   : AC-3
  • Format/Info                              : Audio Coding 3
  • Commercial name                          : Dolby Digital
  • Codec ID                                 : A_AC3
  • Duration                                 : 1 h 18 min
  • Bit rate mode                            : Constant
  • Bit rate                                 : 640 kb/s
  • Channel(s)                               : 6 channels
  • Channel layout                           : L R C LFE Ls Rs
  • Sampling rate                            : 48.0 kHz
  • Frame rate                               : 31.250 FPS (1536 SPF)
  • Compression mode                         : Lossy
  • Stream size                              : 358 MiB (6%)
  • Language                                 : English
  • Service kind                             : Complete Main
  • Default                                  : Yes
  • Forced                                   : No
  • Audio #2
  • ID                                       : 3
  • Format                                   : AAC LC
  • Format/Info                              : Advanced Audio Codec Low Complexity
  • Codec ID                                 : A_AAC-2
  • Duration                                 : 1 h 18 min
  • Bit rate                                 : 112 kb/s
  • Channel(s)                               : 2 channels
  • Channel layout                           : L R
  • Sampling rate                            : 48.0 kHz
  • Frame rate                               : 46.875 FPS (1024 SPF)
  • Compression mode                         : Lossy
  • Delay relative to video                  : 20 ms
  • Stream size                              : 62.8 MiB (1%)
  • Title                                    : Commentary
  • Language                                 : English
  • Default                                  : No
  • Forced                                   : No
  • Audio #3
  • ID                                       : 4
  • Format                                   : AAC LC
  • Format/Info                              : Advanced Audio Codec Low Complexity
  • Codec ID                                 : A_AAC-2
  • Duration                                 : 1 h 18 min
  • Bit rate                                 : 114 kb/s
  • Channel(s)                               : 2 channels
  • Channel layout                           : L R
  • Sampling rate                            : 48.0 kHz
  • Frame rate                               : 46.875 FPS (1024 SPF)
  • Compression mode                         : Lossy
  • Delay relative to video                  : 20 ms
  • Stream size                              : 63.8 MiB (1%)
  • Title                                    : Commentary
  • Language                                 : English
  • Default                                  : No
  • Forced                                   : No
  • Audio #4
  • ID                                       : 5
  • Format                                   : AAC LC
  • Format/Info                              : Advanced Audio Codec Low Complexity
  • Codec ID                                 : A_AAC-2
  • Duration                                 : 1 h 18 min
  • Bit rate                                 : 132 kb/s
  • Channel(s)                               : 2 channels
  • Channel layout                           : L R
  • Sampling rate                            : 48.0 kHz
  • Frame rate                               : 46.875 FPS (1024 SPF)
  • Compression mode                         : Lossy
  • Delay relative to video                  : 20 ms
  • Stream size                              : 72.6 MiB (1%)
  • Title                                    : Commentary
  • Language                                 : English
  • Default                                  : No
  • Forced                                   : No
  • Text
  • ID                                       : 6
  • Format                                   : PGS
  • Muxing mode                              : zlib
  • Codec ID                                 : S_HDMV/PGS
  • Codec ID/Info                            : Picture based subtitle format used on BDs/HD-DVDs
  • Duration                                 : 1 h 17 min
  • Bit rate                                 : 28.2 kb/s
  • Count of elements                        : 1640
  • Stream size                              : 15.7 MiB (0%)
  • Title                                    : SDH
  • Language                                 : English
  • Default                                  : No
  • Forced                                   : No
  • Menu
  • 00:00:00.000                             : en:Chapter 01
  • 00:06:28.930                             : en:Chapter 02
  • 00:13:16.504                             : en:Chapter 03
  • 00:20:31.647                             : en:Chapter 04
  • 00:25:58.682                             : en:Chapter 05
  • 00:32:37.164                             : en:Chapter 06
  • 00:39:06.386                             : en:Chapter 07
  • 00:46:18.192                             : en:Chapter 08
  • 00:52:14.006                             : en:Chapter 09
  • 00:57:39.873                             : en:Chapter 10
  • 01:04:34.079                             : en:Chapter 11
  • 01:11:51.557                             : en:Chapter 12

复制代码



20190801120031.jpg














蓝光高清网提示您  点击下方附件名称  马上开始下载

密歇根湖之怪兽 Lake.Michigan.Monster.2018.720p.BluRay.x264-ORBS 5.91GB

Lake.Michigan.Monster.2018.720p.BluRay.x264-ORBS.torrent ( 30.41 KB )




               
加入蓝光高清网VIP会员  无限制下载本站所有资源---点这里

资源下载、资源播放、字幕使用、无法下载等常见问题---点这里
回复

使用道具 举报

全部回复0 显示全部楼层

声明:您在社区发表的所有信息仅代表用户个人观点,与本网站立场无关,希望各位烧友理性发言,不发表违法国家法律禁止的话题。

您需要登录后才可以回帖 登录 | 立即注册

本版积分规则

联系客服 关注微信 下载APP 返回顶部 返回列表