蓝光高清网

搜索
开启左侧

[其它] 新边疆/边境地平线 New.Frontier.1939.1080p.BluRay.x264-HANDJOB 3.94GB

蓝鸟 发表于 2021-1-12 19:35:38 | 显示全部楼层 |阅读模式 来自: 中国重庆
20190801120031.jpg


译  名 新边疆 / Frontier Horizon / 边境地平线
片  名 New Frontier
年  代 1939
产  地 美国
类  别 西部
语  言 英语
上映日期 1939-08-10
IMDb评分  5.7/10 from 439 users
IMDb链接  https://www.imdb.com/title/tt0031718
豆瓣评分 0/10 from 0 users
豆瓣链接 https://movie.douban.com/subject/2137749/
片  长 57 分钟
导  演 乔治·雪曼 George Sherman
编  剧 Betty Burbridge / Luci Ward
主  演 约翰·韦恩 John Wayne
       雷·科里根 Ray Corrigan
       雷蒙德·哈顿 Raymond Hatton
       珍妮弗·琼斯 Jennifer Jones
       Frankie Marvin
       Slim Whitaker
       Bud McClure
       Sammy McKim
       Wilbur Mack
       LeRoy Mason
       Jack Ingram
       Cactus Mack
       Bill Nestell
       巴德·奥斯博内 Bud Osborne
       Charles Murphy
       Hal Price
       George Plues
       Bob Reeves
       Bill Wolfe
       埃迪·沃勒 Eddy Waller
       Harrison Greene
       Oscar Gahan
       埃尔南·哈克 Herman Hack
       戴夫·奥布莱恩 Dave O"Brien
       Chuck Baldra
       Reginald Barlow
       Burr Caruth
       弗雷德·伯恩斯 Fred Burns
       George Chesebro
       Victor Cox
       Bob Burns
       吉姆·科里 Jim Corey
       John Elliott
       弗兰克·埃利斯 Frank Ellis
       Curley Dresden
       Jody Gilbert

标  签 约翰·韦恩 | n | X2
简  介  
  暂无相关剧情介绍


该资源信息参数
  • Video
  • ID                                       : 1
  • Format                                   : AVC
  • Format/Info                              : Advanced Video Codec
  • Format profile                           : High@L4.1
  • Format settings                          : CABAC / 5 Ref Frames
  • Format settings, CABAC                   : Yes
  • Format settings, Reference frames        : 5 frames
  • Codec ID                                 : V_MPEG4/ISO/AVC
  • Duration                                 : 55 min 26 s
  • Bit rate                                 : 9 933 kb/s
  • Width                                    : 1 450 pixels
  • Height                                   : 1 080 pixels
  • Display aspect ratio                     : 4:3
  • Frame rate mode                          : Constant
  • Frame rate                               : 23.976 (24000/1001) FPS
  • Color space                              : YUV
  • Chroma subsampling                       : 4:2:0
  • Bit depth                                : 8 bits
  • Scan type                                : Progressive
  • Bits/(Pixel*Frame)                       : 0.265
  • Stream size                              : 3.85 GiB (98%)
  • Writing library                          : x264 core 157 r2935 545de2f
  • Encoding settings                        : cabac=1 / ref=5 / deblock=1:-3:-3 / analyse=0x3:0x133 / me=umh / subme=10 / psy=1 / psy_rd=1.00:0.00 / mixed_ref=1 / me_range=32 / chroma_me=1 / trellis=2 / 8x8dct=1 / cqm=0 / deadzone=21,11 / fast_pskip=0 / chroma_qp_offset=-2 / threads=12 / lookahead_threads=3 / sliced_threads=0 / nr=0 / decimate=0 / interlaced=0 / bluray_compat=0 / constrained_intra=0 / bframes=16 / b_pyramid=2 / b_adapt=2 / b_bias=0 / direct=3 / weightb=1 / open_gop=0 / weightp=2 / keyint=240 / keyint_min=24 / scenecut=40 / intra_refresh=0 / rc_lookahead=60 / rc=crf / mbtree=0 / crf=21.0 / qcomp=0.60 / qpmin=0 / qpmax=69 / qpstep=4 / vbv_maxrate=62500 / vbv_bufsize=78125 / crf_max=0.0 / nal_hrd=none / filler=0 / ip_ratio=1.40 / pb_ratio=1.30 / aq=2:1.00
  • Default                                  : Yes
  • Forced                                   : No
  • Color range                              : Limited
  • Color primaries                          : BT.709
  • Transfer characteristics                 : BT.709
  • Matrix coefficients                      : BT.709
  • Audio
  • ID                                       : 2
  • Format                                   : FLAC
  • Format/Info                              : Free Lossless Audio Codec
  • Codec ID                                 : A_FLAC
  • Duration                                 : 55 min 27 s
  • Bit rate mode                            : Variable
  • Bit rate                                 : 251 kb/s
  • Channel(s)                               : 1 channel
  • Channel layout                           : C
  • Sampling rate                            : 48.0 kHz
  • Frame rate                               : 11.719 FPS (4096 SPF)
  • Bit depth                                : 16 bits
  • Compression mode                         : Lossless
  • Stream size                              : 99.4 MiB (2%)
  • Writing library                          : Lavf57.25.100
  • Language                                 : English
  • Default                                  : Yes
  • Forced                                   : No
  • Menu
  • 00:00:00.000                             : :Chapter 1
  • 00:05:27.452                             : :Chapter 2
  • 00:14:33.206                             : :Chapter 3
  • 00:19:31.295                             : :Chapter 4
  • 00:21:01.927                             : :Chapter 5
  • 00:34:45.917                             : :Chapter 6
  • 00:39:16.688                             : :Chapter 7
  • 00:44:06.477                             : :Chapter 8

复制代码



20190801120031.jpg

20190801120031.jpg

20190801120031.jpg


蓝光高清网提示您  点击下方附件名称  马上开始下载

新边疆/边境地平线 New.Frontier.1939.1080p.BluRay.x264-HANDJOB 3.94GB

New.Frontier.1939.1080p.BluRay.x264-HANDJOB.torrent ( 39.99 KB )




               
加入蓝光高清网VIP会员  无限制下载本站所有资源---点这里

资源下载、资源播放、字幕使用、无法下载等常见问题---点这里
回复

使用道具 举报

全部回复0 显示全部楼层

声明:您在社区发表的所有信息仅代表用户个人观点,与本网站立场无关,希望各位烧友理性发言,不发表违法国家法律禁止的话题。

您需要登录后才可以回帖 登录 | 立即注册

本版积分规则

联系客服 关注微信 下载APP 返回顶部 返回列表