蓝光高清网

搜索
开启左侧

[奇幻] 霍比特人3 The.Hobbit.2014.1080p.BluRay.x264.DTS-FGT 15.43GB

蓝鸟 发表于 2019-8-22 02:54:14 | 显示全部楼层 |阅读模式 来自: 中国重庆

霍比特人3 The.Hobbit.2014.1080p.BluRay.x264.DTS-FGT 15.43GB-1.jpg
◎译  名 霍比特人3:五军之战/哈比人:五军之战(港台)/哈比人:奇境再返(台)/哈比人:汗血回归/指环王前传:霍比特人(下)/霍比特人3:去而复返
◎片  名 The Hobbit: The Battle of the Five Armies
◎年  代 2014
◎国  家 美国/新西兰
◎类  别 动作/奇幻/冒险
◎语  言 英语
◎上映日期 2014-12-01(伦敦首映)/2014-12-17(美国)/2015-01-23(中国大陆)
◎IMDb评分  7.5/10 from 266,899 users
◎IMDb链接  http://www.imdb.com/title/tt2310332/
◎豆瓣评分 8.2/10 from 137,546 users
◎豆瓣链接 http://movie.douban.com/subject/2973079/
◎片  长 144分钟
◎导  演 彼得·杰克逊 Peter Jackson
◎主  演 马丁·弗瑞曼 Martin Freeman
      伊恩·麦克莱恩 Ian McKellen
      理查德·阿米蒂奇 Richard Armitage
      伊万杰琳·莉莉 Evangeline Lilly
      李·佩斯 Lee Pace
      卢克·伊万斯 Luke Evans
      本尼迪克特·康伯巴奇 Benedict Cumberbatch
      肯·斯托特 Ken Stott
      詹姆斯·内斯比特 James Nesbitt
      比利·康诺利 Billy Connolly
      凯特·布兰切特 Cate Blanchett
      伊安·霍姆 Ian Holm
      克里斯托弗·李 Christopher Lee
      雨果·维文 Hugo Weaving
      奥兰多·布鲁姆 Orlando Bloom
      马努·贝内特 Manu Bennett
      艾丹·特纳 Aidan Turner
      迪恩·奥戈曼 Dean O Gorman
      格拉汉姆·麦克泰维什 Graham McTavish
      斯蒂芬·弗雷 Stephen Fry
      米卡埃尔·佩斯布兰特 Mikael Persbrandt
◎简  介
  被吵醒的史矛革大闹长湖镇,最终为人类巴德(卢克·伊万斯 Luke Evans 饰)射杀。索林·橡木盾(理查德·阿米蒂奇 Richard Armitage 饰)多年的夙愿终于实现,孤山埃尔波尔重新回到矮人手中。然而这位矮人王子仿佛被史矛革的贪婪和堆成山的黄金迷惑了心窍,他 疯狂地搜寻象征王位的阿肯宝石,不仅撕毁了付给长湖镇报酬的约定,更拒绝了精灵王(李·佩斯 Lee Pace 饰)索要本族国宝的要求,为此导致三族的战争一触即发。与此同时,苍白半兽人阿索格率领大军浩浩荡荡向孤山逼近。得知消息的灰袍巫师甘道夫(伊恩·麦凯伦 Ian McKellen 饰)从中调停斡旋,而被索林视为唯一朋友的霍比特人比尔博·巴金斯(马丁·弗里曼 Martin John C. Freeman 饰)则掌握着中土命运的关键。五军会战,爆发在即!
  本片根据J.R.R·托尔金的同名原著改编,为霍比特人系列的最后一部。
◎获奖情况
  第87届奥斯卡金像奖 (2015)
  最佳音效剪辑(提名)
Video
ID                                       : 1
Format                                   : AVC
Format/Info                              : Advanced Video Codec
Format profile                           : [email protected]
Format settings, CABAC                   : Yes
Format settings, ReFrames                : 5 frames
Codec ID                                 : V_MPEG4/ISO/AVC
Duration                                 : 2h 24mn
Bit rate                                 : 13.5 Mbps
Width                                    : 1 920 pixels
Height                                   : 800 pixels
Display aspect ratio                     : 2.40:1
Frame rate mode                          : Constant
Frame rate                               : 23.976 fps
Color space                              : YUV
Chroma subsampling                       : 4:2:0
Bit depth                                : 8 bits
Scan type                                : Progressive
Bits/(Pixel*Frame)                       : 0.366
Stream size                              : 13.6 GiB (88%)
Writing library                          : x264 core 144 r2525kMod 40bb568
Encoding settings                        : cabac=1 / ref=5 / deblock=1:-2:-2 / analyse=0x3:0x133 / me=umh / subme=11 / psy=1 / fade_compensate=0.00 / psy_rd=1.00:0.00 / mixed_ref=1 / me_range=32 / chroma_me=1 / trellis=2 / 8x8dct=1 / cqm=0 / deadzone=21,11 / fast_pskip=1 / chroma_qp_offset=-2 / threads=12 / lookahead_threads=2 / sliced_threads=0 / nr=0 / decimate=1 / interlaced=0 / bluray_compat=0 / constrained_intra=0 / fgo=0 / bframes=8 / b_pyramid=2 / b_adapt=2 / b_bias=0 / direct=1 / weightb=1 / open_gop=0 / weightp=2 / keyint=250 / keyint_min=23 / scenecut=40 / intra_refresh=0 / rc_lookahead=60 / rc=crf / mbtree=0 / crf=14.5000 / qcomp=0.70 / qpmin=0 / qpmax=69 / qpstep=4 / vbv_maxrate=62500 / vbv_bufsize=78125 / crf_max=0.0 / nal_hrd=none / filler=0 / ip_ratio=1.40 / pb_ratio=1.30 / aq=1:0.80
Language                                 : English
Default                                  : Yes
Forced                                   : No
Color range                              : Limited
Color primaries                          : BT.709
Transfer characteristics                 : BT.709
Matrix coefficients                      : BT.709
Audio
ID                                       : 2
Format                                   : DTS
Format/Info                              : Digital Theater Systems
Mode                                     : 16
Format settings, Endianness              : Big
Codec ID                                 : A_DTS
Duration                                 : 2h 24mn
Bit rate mode                            : Constant
Bit rate                                 : 1 509 Kbps
Channel(s)                               : 6 channels
Channel positions                        : Front: L C R, Side: L R, LFE
Sampling rate                            : 48.0 KHz
Bit depth                                : 24 bits
Compression mode                         : Lossy
Delay relative to video                  : 11ms
Stream size                              : 1.52 GiB (10%)
Language                                 : English
Default                                  : Yes
Forced                                   : No
Text #1
ID                                       : 3
Format                                   : UTF-8
Codec ID                                 : S_TEXT/UTF8
Codec ID/Info                            : UTF-8 Plain Text
Language                                 : English
Default                                  : No
Forced                                   : No
Text #2
ID                                       : 4
Format                                   : UTF-8
Codec ID                                 : S_TEXT/UTF8
Codec ID/Info                            : UTF-8 Plain Text
Title                                    : SDH
Language                                 : English
Default                                  : No
Forced                                   : No
Menu
00:00:00.000                             : en:Fire and Water
00:05:12.395                             : en:Bard the Dragon-Slayer
00:12:26.287                             : enungeons of the Dark Lord
00:12:58.527                             : en:Shores of the Long Lake
00:18:36.657                             : en:Not at Home
00:23:21.399                             : en:\ Others Will Now Look to the Mountain\
00:24:35.390                             : en:Legions of the Defiler
00:25:43.625                             : en:The Mark of Gundabad
00:27:12.255                             : en:Attack on Dol Guldur
00:34:30.109                             : en:The King\ s Jewel
00:38:27.722                             : en:The Ruins of Dale
00:39:46.967                             : en:Erebor Fortified
00:40:57.580                             : en:The Elvenking\ s Aid
00:43:54.506                             : en:The Gathering of the Clouds
00:49:06.026                             : en:A Token of Friendship
00:52:36.319                             : en:The Shadow of Gundabad
00:53:53.188                             : en:\ The Last Move in a Master Plan\
00:56:09.657                             : en:Bolg of the North
00:58:04.731                             : en:A Thief in the Night
01:01:57.964                             : en:An Honest Burglar
01:07:13.696                             : enain Ironfoot
01:10:00.446                             : en:The Clouds Burst
01:12:29.887                             : en:The Battle at Dale
01:16:51.523                             : en:The Darkest Hour
01:20:05.926                             : enragon Sickness
01:22:15.347                             : en:The Return of Thorin Oakenshield
01:24:25.226                             : en:Sons of Durin
01:26:35.899                             : en:\ To the King!\
01:29:18.895                             : en:Thorin\ s Plan
01:31:17.388                             : en:The Fifth Army
01:32:03.851                             : en:Scouting Rayenhill
01:33:01.575                             : en:Blood of The Eldar
01:35:58.169                             : en:Courage and Cowardice
01:36:52.431                             : en:The Fallen
01:40:16.385                             : en:The Battle at Ravenhill
01:48:15.530                             : en:To the Death
01:54:22.438                             : enarting in Friendship
01:57:41.637                             : en:The Sorrow of Elves
02:00:47.907                             : en:The Return Journey
02:06:48.434                             : en:The Last Stage
02:11:31.300                             : en:Credits

精彩剧照

霍比特人3 The.Hobbit.2014.1080p.BluRay.x264.DTS-FGT 15.43GB-2.jpg 霍比特人3 The.Hobbit.2014.1080p.BluRay.x264.DTS-FGT 15.43GB-3.jpg 霍比特人3 The.Hobbit.2014.1080p.BluRay.x264.DTS-FGT 15.43GB-4.jpg 霍比特人3 The.Hobbit.2014.1080p.BluRay.x264.DTS-FGT 15.43GB-5.jpg 霍比特人3 The.Hobbit.2014.1080p.BluRay.x264.DTS-FGT 15.43GB-6.jpg 霍比特人3 The.Hobbit.2014.1080p.BluRay.x264.DTS-FGT 15.43GB-7.jpg
                                       

蓝光高清网提示您 点击下方附件名称 马上开始下载

The.Hobbit.The.Battle.of.the.Five.Armies.2014.1080p.BluRay.x264.DTS-FGT.torrent ( 77.82 KB )



温馨提示:
本站资源优先使用迅雷下载,迅雷会员下载,速度基本可以跑满宽带
如果遇到无资源或者版权问题无法下载,推荐使用115网盘离线下载(点击查看115网盘离线下载教程


加入蓝光高清网VIP会员  无限制下载本站所有资源---点这里

资源下载、资源播放、字幕使用、无法下载等常见问题---点这里
回复

使用道具 举报

全部回复0 显示全部楼层

声明:您在社区发表的所有信息仅代表用户个人观点,与本网站立场无关,希望各位烧友理性发言,不发表违法国家法律禁止的话题。

您需要登录后才可以回帖 登录 | 立即注册

本版积分规则

联系客服 关注微信 下载APP 返回顶部 返回列表