蓝光高清网

搜索
开启左侧

[纪录片] 登山家 The.Alpinist.2021.1080p.BluRay.REMUX.AVC.DTS-HD.MA.5.1-FGT 23.84GB

蓝鸟 发表于 2022-6-2 16:47:29 | 显示全部楼层 |阅读模式 来自: 中国重庆

登山家 The.Alpinist.2021.1080p.BluRay.REMUX.AVC.DTS-HD.MA.5.1-FGT 23.84GB

登山家 The.Alpinist.2021.1080p.BluRay.REMUX.AVC.DTS-HD.MA.5.1-FGT 23.84GB


译  名 登山家
片  名 The Alpinist
年  代 2021
产  地 美国
类  别 纪录片
语  言 英语
上映日期 2021-09-10(美国)
豆瓣评分 9.3/10 (2194人评价)
片  长 92分钟
导  演 彼得·莫蒂默 Peter Mortimer
演  员 马克·安德烈·莱克莱尔 Marc-André Leclerc
       彼得·莫蒂默 Peter Mortimer
       亚历克斯·霍诺德 Alex Honnold
       赖因霍尔德·梅斯纳 Reinhold Messner

简  介

马克·安德烈·莱克莱尔独自攀登,远离聚光灯。这位23岁的自由主义者进行了历史上最大胆的单人攀登。没有摄像机,也没有失误的余地,莱克莱尔提供了一种单人冒险方式的精髓。


影片参数
  1. Video
  2. ID                                       : 1
  3. ID in the original source medium         : 4113 (0x1011)
  4. Format                                   : AVC
  5. Format/Info                              : Advanced Video Codec
  6. Format profile                           : [email protected]
  7. Format settings                          : CABAC / 4 Ref Frames
  8. Format settings, CABAC                   : Yes
  9. Format settings, Reference frames        : 4 frames
  10. Codec ID                                 : V_MPEG4/ISO/AVC
  11. Duration                                 : 1 h 32 min
  12. Bit rate mode                            : Variable
  13. Bit rate                                 : 33.5 Mb/s
  14. Maximum bit rate                         : 35.0 Mb/s
  15. Width                                    : 1 920 pixels
  16. Height                                   : 1 080 pixels
  17. Display aspect ratio                     : 16:9
  18. Frame rate mode                          : Constant
  19. Frame rate                               : 23.976 (24000/1001/189150) FPS
  20. Color space                              : YUV
  21. Chroma subsampling                       : 4:2:0
  22. Bit depth                                : 8 bits
  23. Scan type                                : Progressive
  24. Bits/(Pixel*Frame)                       : 0.673
  25. Stream size                              : 21.6 GiB (90%)
  26. Language                                 : English
  27. Default                                  : No
  28. Forced                                   : No
  29. Color range                              : Limited
  30. Color primaries                          : BT.709
  31. Transfer characteristics                 : BT.709
  32. Matrix coefficients                      : BT.709
  33. Original source medium                   : Blu-ray
  34. Audio #1
  35. ID                                       : 2
  36. ID in the original source medium         : 4352 (0x1100)
  37. Format                                   : DTS XLL
  38. Format/Info                              : Digital Theater Systems
  39. Commercial name                          : DTS-HD Master Audio
  40. Codec ID                                 : A_DTS
  41. Duration                                 : 1 h 32 min
  42. Bit rate mode                            : Variable
  43. Bit rate                                 : 1 977 kb/s
  44. Channel(s)                               : 6 channels
  45. Channel layout                           : C L R Ls Rs LFE
  46. Sampling rate                            : 48.0 kHz
  47. Frame rate                               : 93.750 FPS (512 SPF)
  48. Bit depth                                : 16 bits
  49. Compression mode                         : Lossless
  50. Stream size                              : 1.27 GiB (5%)
  51. Title                                    : DTS-HD MA 5.1
  52. Language                                 : English
  53. Default                                  : Yes
  54. Forced                                   : No
  55. Original source medium                   : Blu-ray
  56. Audio #2
  57. ID                                       : 3
  58. ID in the original source medium         : 4353 (0x1101)
  59. Format                                   : PCM
  60. Format settings                          : Little / Signed
  61. Codec ID                                 : A_PCM/INT/LIT
  62. Duration                                 : 1 h 32 min
  63. Bit rate mode                            : Constant
  64. Bit rate                                 : 1 536 kb/s
  65. Channel(s)                               : 2 channels
  66. Sampling rate                            : 48.0 kHz
  67. Frame rate                               : 30.000 FPS (1600 SPF)
  68. Bit depth                                : 16 bits
  69. Stream size                              : 1 014 MiB (4%)
  70. Title                                    : LPCM 2.0
  71. Language                                 : English
  72. Default                                  : No
  73. Forced                                   : No
  74. Original source medium                   : Blu-ray
  75. Text #1
  76. ID                                       : 4
  77. Format                                   : UTF-8
  78. Codec ID                                 : S_TEXT/UTF8
  79. Codec ID/Info                            : UTF-8 Plain Text
  80. Duration                                 : 1 h 26 min
  81. Bit rate                                 : 72 b/s
  82. Count of elements                        : 1039
  83. Stream size                              : 46.0 KiB (0%)
  84. Language                                 : English
  85. Default                                  : Yes
  86. Forced                                   : No
  87. Text #2
  88. ID                                       : 5
  89. Format                                   : UTF-8
  90. Codec ID                                 : S_TEXT/UTF8
  91. Codec ID/Info                            : UTF-8 Plain Text
  92. Duration                                 : 1 h 27 min
  93. Bit rate                                 : 73 b/s
  94. Count of elements                        : 1099
  95. Stream size                              : 47.0 KiB (0%)
  96. Title                                    : SDH
  97. Language                                 : English
  98. Default                                  : No
  99. Forced                                   : No
  100. Text #3
  101. ID                                       : 6
  102. ID in the original source medium         : 4608 (0x1200)
  103. Format                                   : PGS
  104. Muxing mode                              : zlib
  105. Codec ID                                 : S_HDMV/PGS
  106. Codec ID/Info                            : Picture based subtitle format used on BDs/HD-DVDs
  107. Duration                                 : 1 h 27 min
  108. Bit rate                                 : 42.1 kb/s
  109. Count of elements                        : 2198
  110. Stream size                              : 26.4 MiB (0%)
  111. Language                                 : English
  112. Default                                  : No
  113. Forced                                   : No
  114. Original source medium                   : Blu-ray
  115. Menu
  116. 00:00:00.000                             : en:Chapter 01
  117. 00:07:18.062                             : en:Chapter 02
  118. 00:14:58.939                             : en:Chapter 03
  119. 00:20:19.927                             : en:Chapter 04
  120. 00:32:09.218                             : en:Chapter 05
  121. 00:41:42.500                             : en:Chapter 06
  122. 00:51:44.101                             : en:Chapter 07
  123. 00:58:19.454                             : en:Chapter 08
  124. 01:06:45.751                             : en:Chapter 09
  125. 01:15:17.971                             : en:Chapter 10
  126. 01:23:28.378                             : en:Chapter 11
  127. 01:28:29.262                             : en:Chapter 12
复制代码

登山家 The.Alpinist.2021.1080p.BluRay.REMUX.AVC.DTS-HD.MA.5.1-FGT 23.84GB

登山家 The.Alpinist.2021.1080p.BluRay.REMUX.AVC.DTS-HD.MA.5.1-FGT 23.84GB

登山家 The.Alpinist.2021.1080p.BluRay.REMUX.AVC.DTS-HD.MA.5.1-FGT 23.84GB

登山家 The.Alpinist.2021.1080p.BluRay.REMUX.AVC.DTS-HD.MA.5.1-FGT 23.84GB



蓝光高清网提示您 点击下方附件即可下载

登山家 The.Alpinist.2021.1080p.BluRay.REMUX.AVC.DTS-HD.MA.5.1-FGT 23.84GB

The.Alpinist.2021.1080p.BluRay.REMUX.AVC.DTS-HD.MA.5.1-FGT.torrent ( 30.46 KB )

加入蓝光高清网VIP会员  无限制下载本站所有资源---点这里

资源下载、资源播放、字幕使用、无法下载等常见问题---点这里
回复

使用道具 举报

全部回复0 显示全部楼层

声明:您在社区发表的所有信息仅代表用户个人观点,与本网站立场无关,希望各位烧友理性发言,不发表违法国家法律禁止的话题。

您需要登录后才可以回帖 登录 | 立即注册

本版积分规则

联系客服 关注微信 下载APP 返回顶部 返回列表