蓝光高清网

搜索
开启左侧

[剧情片] 帕特里克 Patrick.2019.DUTCH.1080p.BluRay.REMUX.AVC.DTS-HD.MA.5.1-FGT 24.85GB

蓝鸟 发表于 2022-6-2 17:41:53 | 显示全部楼层 |阅读模式 来自: 中国重庆

帕特里克 Patrick.2019.DUTCH.1080p.BluRay.REMUX.AVC.DTS-HD.MA.5.1-FGT 24.85GB

帕特里克 Patrick.2019.DUTCH.1080p.BluRay.REMUX.AVC.DTS-HD.MA.5.1-FGT 24.85GB


译  名 帕特里克 / Patrick
片  名 De Patrick
年  代 2019
产  地 比利时
类  别 剧情 / 喜剧
语  言 荷兰语 / 法语 / 英语 / 德语
上映日期 2019-07-01(卡罗维发利电影节) / 2019-08-28(比利时)
豆瓣评分 6.4/10 (152人评价)
片  长 90分钟
导  演 蒂姆·米兰特斯 Tim Mielants
编  剧 蒂姆·米兰特斯 Tim Mielants
演  员 杰梅奈·克莱门特 Jemaine Clement
       凯文·让森斯 Kevin Janssens
       汉娜·霍克斯特拉 Hannah Hoekstra
       扬·贝弗特 Jan Bijvoet
       伯利·兰内尔 Bouli Lanners
       皮埃尔·波克玛 Pierre Bokma
       让-本笃·尤格斯 Jean-Beno?t Ugeux
       弗朗克·维克鲁西恩 Frank Vercruyssen
       卡特简·达门 Katelijne Damen
       eter Gorissen Peter Gorissen
       Tine van den Brande Tine van den Brande
       若斯·德波夫 Josse De Pauw

简  介

Patrick lives at a naturist campsite owned by his father. Until the moment he loses his favourite hammer, his life is as well-ordered as his meticulously tidy workshop. The missing tool, however, sets off a chain of events that not only affects Patrick, but also reveals the true nature of the camp residents: Their appearance may not leave much to the imagination, but they’re un...


获奖情况 (共2项)

第54届卡罗维发利国际电影节 (2019)
  水晶地球仪奖 最佳导演
   └──蒂姆·米兰特斯
  水晶地球仪奖(提名)
   └──蒂姆·米兰特斯


影片参数
  1. Video
  2. ID                                       : 1
  3. ID in the original source medium         : 4113 (0x1011)
  4. Format                                   : AVC
  5. Format/Info                              : Advanced Video Codec
  6. Format profile                           : [email protected]
  7. Format settings                          : CABAC / 3 Ref Frames
  8. Format settings, CABAC                   : Yes
  9. Format settings, Reference frames        : 3 frames
  10. Codec ID                                 : V_MPEG4/ISO/AVC
  11. Duration                                 : 1 h 36 min
  12. Bit rate mode                            : Variable
  13. Bit rate                                 : 35.0 Mb/s
  14. Maximum bit rate                         : 38.0 Mb/s
  15. Width                                    : 1 920 pixels
  16. Height                                   : 1 080 pixels
  17. Display aspect ratio                     : 16:9
  18. Frame rate mode                          : Constant
  19. Frame rate                               : 24.000 FPS
  20. Color space                              : YUV
  21. Chroma subsampling                       : 4:2:0
  22. Bit depth                                : 8 bits
  23. Scan type                                : Progressive
  24. Bits/(Pixel*Frame)                       : 0.703
  25. Stream size                              : 22.7 GiB (91%)
  26. Writing library                          : x264 core 148 r2705 3f5ed56
  27. Encoding settings                        : cabac=1 / ref=4 / deblock=0:-1:-1 / analyse=0x3:0x133 / me=umh / subme=10 / psy=1 / psy_rd=1.00:0.15 / mixed_ref=1 / me_range=24 / chroma_me=1 / trellis=2 / 8x8dct=1 / cqm=0 / deadzone=21,11 / fast_pskip=1 / chroma_qp_offset=-3 / threads=34 / lookahead_threads=2 / sliced_threads=0 / slices=4 / nr=0 / decimate=1 / interlaced=0 / bluray_compat=1 / constrained_intra=0 / bframes=3 / b_pyramid=1 / b_adapt=2 / b_bias=0 / direct=3 / weightb=1 / open_gop=1 / weightp=1 / keyint=24 / keyint_min=1 / scenecut=40 / intra_refresh=0 / rc_lookahead=24 / rc=abr / mbtree=0 / bitrate=35000 / ratetol=1.0 / qcomp=0.60 / qpmin=0 / qpmax=69 / qpstep=4 / vbv_maxrate=38000 / vbv_bufsize=30000 / nal_hrd=vbr / filler=0 / ip_ratio=1.40 / pb_ratio=1.30 / aq=1:0.60
  28. Language                                 : English
  29. Default                                  : No
  30. Forced                                   : No
  31. Color range                              : Limited
  32. Color primaries                          : BT.709
  33. Transfer characteristics                 : BT.709
  34. Matrix coefficients                      : BT.709
  35. Original source medium                   : Blu-ray
  36. Audio #1
  37. ID                                       : 2
  38. ID in the original source medium         : 4352 (0x1100)
  39. Format                                   : DTS XLL
  40. Format/Info                              : Digital Theater Systems
  41. Commercial name                          : DTS-HD Master Audio
  42. Codec ID                                 : A_DTS
  43. Duration                                 : 1 h 36 min
  44. Bit rate mode                            : Variable
  45. Bit rate                                 : 3 061 kb/s
  46. Channel(s)                               : 6 channels
  47. Channel layout                           : C L R Ls Rs LFE
  48. Sampling rate                            : 48.0 kHz
  49. Frame rate                               : 93.750 FPS (512 SPF)
  50. Bit depth                                : 24 bits
  51. Compression mode                         : Lossless
  52. Stream size                              : 2.05 GiB (8%)
  53. Title                                    : DTS-HD MA 5.1
  54. Language                                 : Dutch
  55. Default                                  : Yes
  56. Forced                                   : No
  57. Original source medium                   : Blu-ray
  58. Audio #2
  59. ID                                       : 3
  60. ID in the original source medium         : 4353 (0x1101)
  61. Format                                   : AC-3
  62. Format/Info                              : Audio Coding 3
  63. Commercial name                          : Dolby Digital
  64. Codec ID                                 : A_AC3
  65. Duration                                 : 1 h 36 min
  66. Bit rate mode                            : Constant
  67. Bit rate                                 : 192 kb/s
  68. Channel(s)                               : 2 channels
  69. Channel layout                           : L R
  70. Sampling rate                            : 48.0 kHz
  71. Frame rate                               : 31.250 FPS (1536 SPF)
  72. Compression mode                         : Lossy
  73. Stream size                              : 132 MiB (0%)
  74. Title                                    : DD 2.0
  75. Language                                 : English
  76. Service kind                             : Complete Main
  77. Default                                  : No
  78. Forced                                   : No
  79. Original source medium                   : Blu-ray
  80. Text #1
  81. ID                                       : 4
  82. Format                                   : UTF-8
  83. Codec ID                                 : S_TEXT/UTF8
  84. Codec ID/Info                            : UTF-8 Plain Text
  85. Duration                                 : 1 h 25 min
  86. Bit rate                                 : 29 b/s
  87. Count of elements                        : 525
  88. Stream size                              : 18.5 KiB (0%)
  89. Language                                 : English
  90. Default                                  : Yes
  91. Forced                                   : No
  92. Text #2
  93. ID                                       : 5
  94. ID in the original source medium         : 4608 (0x1200)
  95. Format                                   : PGS
  96. Muxing mode                              : zlib
  97. Codec ID                                 : S_HDMV/PGS
  98. Codec ID/Info                            : Picture based subtitle format used on BDs/HD-DVDs
  99. Duration                                 : 1 h 25 min
  100. Bit rate                                 : 18.4 kb/s
  101. Count of elements                        : 1072
  102. Stream size                              : 11.3 MiB (0%)
  103. Language                                 : English
  104. Default                                  : No
  105. Forced                                   : No
  106. Original source medium                   : Blu-ray
  107. Menu
  108. 00:00:00.000                             : en:Chapter 01
  109. 00:10:30.916                             : en:Chapter 02
  110. 00:20:36.125                             : en:Chapter 03
  111. 00:26:33.708                             : en:Chapter 04
  112. 00:37:46.708                             : en:Chapter 05
  113. 00:49:24.416                             : en:Chapter 06
  114. 01:03:57.833                             : en:Chapter 07
  115. 01:12:27.333                             : en:Chapter 08
  116. 01:19:28.791                             : en:Chapter 09
  117. 01:27:45.125                             : en:Chapter 10
  118. 01:32:29.083                             : en:Chapter 11
复制代码



蓝光高清网提示您 点击下方附件即可下载

帕特里克 Patrick.2019.DUTCH.1080p.BluRay.REMUX.AVC.DTS-HD.MA.5.1-FGT 24.85GB

Patrick.2019.DUTCH.1080p.BluRay.REMUX.AVC.DTS-HD.MA.5.1-FGT.torrent ( 31.71 KB )

加入蓝光高清网VIP会员  无限制下载本站所有资源---点这里

资源下载、资源播放、字幕使用、无法下载等常见问题---点这里
回复

使用道具 举报

全部回复0 显示全部楼层

声明:您在社区发表的所有信息仅代表用户个人观点,与本网站立场无关,希望各位烧友理性发言,不发表违法国家法律禁止的话题。

您需要登录后才可以回帖 登录 | 立即注册

本版积分规则

联系客服 关注微信 下载APP 返回顶部 返回列表