蓝光高清网

搜索
开启左侧

[剧情片] 梦想奔驰 Dreamer.Inspired.By.A.True.Story.2005.1080p.BluRay.REMUX.AVC.DTS-HD.MA.5.1-FGT 29.61GB

蓝鸟 发表于 2022-6-2 17:43:58 | 显示全部楼层 |阅读模式 来自: 中国重庆

梦想奔驰 Dreamer.Inspired.By.A.True.Story.2005.1080p.BluRay.REMUX.AVC.DTS-HD.MA.5.1-FGT 29.61GB

梦想奔驰 Dreamer.Inspired.By.A.True.Story.2005.1080p.BluRay.REMUX.AVC.DTS-HD.MA.5.1-FGT 29.61GB


译  名 梦想奔驰 / 梦想家
片  名 Dreamer: Inspired by a True Story
年  代 2005
产  地 美国
类  别 剧情 / 家庭 / 运动
语  言 英语
上映日期 2005-09-10
豆瓣评分 8.0/10 (3420人评价)
片  长 106 分钟
导  演 约翰·盖汀斯 John Gatins
编  剧 约翰·盖汀斯 John Gatins
演  员 库尔特·拉塞尔 Kurt Russell
       达科塔·范宁 Dakota Fanning
       克里斯·克里斯托佛森 Kris Kristofferson
       伊丽莎白·苏 Elisabeth Shue
       弗莱迪·罗德里格兹 Freddy Rodríguez
        Antonio Albadran
        Donna Barton Brothers
       Chad Hundley Chad Hundley
       罗达·格里菲丝 Rhoda Griffis
       Vin Morreale Jr. Vin Morreale Jr.
       大卫·摩斯 David Morse
        Dick Allen
       Maryetta Coleman Maryetta Coleman
       凯伦·巴特勒 Kayren Butler
       哈奇·汉考克 Hutchi Hancock
       James Wolford Hardin James Wolford Hardin
       Adam Tomei Adam Tomei
       霍尔姆斯·奥斯本 Holmes Osborne
       Dono Langley Dono Langley
       肯·霍华德 Ken Howard
       Bob C. Cooke Bob C. Cooke
       路易斯·古兹曼 Luis Guzmán
       杰夫·福尔克 Geoff Falk
       Daniel Malo Daniel Malo
       Jerry L. Wallace Jerry L. Wallace
       Henry Jaderlund Henry Jaderlund
       罗斯玛丽·加里斯 Rosemary Garris
       奥德·菲尔 Oded Fehr
       韦恩道格拉斯摩根 Wayne Douglas Morgan
       约翰·纽伯格 John Newberg
       迈克尔·托林 Michael Tollin
       布莱恩·罗宾斯 Brian Robbins
        Christa Nelson
       约翰·戴布尼 John Debney
       弗雷德·墨菲 Fred Murphy
       戴维·罗斯布卢姆 David Rosenbloom
       兰迪·希勒 Randi Hiller
       萨拉·芬兰 Sarah Finn
       玛丽亚·奈 Maria Nay
       Scott Plauche Scott Plauche
        Christa Nelson
       Francisco X. Pérez Francisco X. Pérez
       Diane Hardin Diane Hardin
       Janice Alexander Janice Alexander
       Karen Asano-Myers Karen Asano-Myers
        Scott H. Reeder
       Heather Mages Heather Mages
       Amani Williams Amani Williams
       夏伊娜·霍尔姆斯 Shaina Holmes
       贾斯汀·琼斯 Justin Jones
       杰米·迪克森 Jamie Dixon
       萨德·贝尔 Thad Beier

简  介

高超的技艺和天赋曾为骑师本?科恩(科特?拉塞尔)赢来无数奖杯和荣耀,然而随着岁月流逝,他慢慢地被层出不穷的新人抛在身后,成了等待被“处理的垃圾”。与他命运相同的还有老马桑娅,后者曾作为一匹前途无量的种子选手为主人赢得过无数场比赛,但因运动强度过大在某次比赛中折断后腿后,它在主人眼中也就成了“废物”。后来,桑娅被主人当作遣散费送给了本?科恩。                                    
                                本?科恩的沮丧被他的女儿凯尔(达柯塔?芬妮)尽收眼底,为了帮助爸爸和桑娅重拾自信,她制定了详细的计划,首先,她说服本?科恩同她一起精心照料桑娅,桑娅一点点恢复健康重新站立起来时,她又想方设法使本?科恩接下看似不可能完成的任务——赢得“育马者杯经典大赛”。


影片参数
  1. Video
  2. ID                                       : 1
  3. ID in the original source medium         : 4113 (0x1011)
  4. Format                                   : AVC
  5. Format/Info                              : Advanced Video Codec
  6. Format profile                           : [email protected]
  7. Format settings                          : CABAC / 4 Ref Frames
  8. Format settings, CABAC                   : Yes
  9. Format settings, Reference frames        : 4 frames
  10. Codec ID                                 : V_MPEG4/ISO/AVC
  11. Duration                                 : 1 h 45 min
  12. Bit rate mode                            : Variable
  13. Bit rate                                 : 35.3 Mb/s
  14. Maximum bit rate                         : 38.0 Mb/s
  15. Width                                    : 1 920 pixels
  16. Height                                   : 1 080 pixels
  17. Display aspect ratio                     : 16:9
  18. Frame rate mode                          : Constant
  19. Frame rate                               : 23.976 (24000/1001/189150) FPS
  20. Color space                              : YUV
  21. Chroma subsampling                       : 4:2:0
  22. Bit depth                                : 8 bits
  23. Scan type                                : Progressive
  24. Bits/(Pixel*Frame)                       : 0.710
  25. Stream size                              : 26.0 GiB (88%)
  26. Language                                 : English
  27. Default                                  : No
  28. Forced                                   : No
  29. Original source medium                   : Blu-ray
  30. Audio #1
  31. ID                                       : 2
  32. ID in the original source medium         : 4352 (0x1100)
  33. Format                                   : DTS XLL
  34. Format/Info                              : Digital Theater Systems
  35. Commercial name                          : DTS-HD Master Audio
  36. Codec ID                                 : A_DTS
  37. Duration                                 : 1 h 45 min
  38. Bit rate mode                            : Variable
  39. Bit rate                                 : 3 418 kb/s
  40. Channel(s)                               : 6 channels
  41. Channel layout                           : C L R Ls Rs LFE
  42. Sampling rate                            : 48.0 kHz
  43. Frame rate                               : 93.750 FPS (512 SPF)
  44. Bit depth                                : 24 bits
  45. Compression mode                         : Lossless
  46. Stream size                              : 2.51 GiB (8%)
  47. Title                                    : DTS-HD MA 5.1
  48. Language                                 : English
  49. Default                                  : Yes
  50. Forced                                   : No
  51. Original source medium                   : Blu-ray
  52. Audio #2
  53. ID                                       : 3
  54. ID in the original source medium         : 4353 (0x1101)
  55. Format                                   : AC-3
  56. Format/Info                              : Audio Coding 3
  57. Commercial name                          : Dolby Digital
  58. Codec ID                                 : A_AC3
  59. Duration                                 : 1 h 45 min
  60. Bit rate mode                            : Constant
  61. Bit rate                                 : 640 kb/s
  62. Channel(s)                               : 6 channels
  63. Channel layout                           : L R C LFE Ls Rs
  64. Sampling rate                            : 48.0 kHz
  65. Frame rate                               : 31.250 FPS (1536 SPF)
  66. Compression mode                         : Lossy
  67. Stream size                              : 482 MiB (2%)
  68. Title                                    : DD 5.1
  69. Language                                 : English
  70. Service kind                             : Complete Main
  71. Default                                  : No
  72. Forced                                   : No
  73. Original source medium                   : Blu-ray
  74. Audio #3
  75. ID                                       : 4
  76. ID in the original source medium         : 4354 (0x1102)
  77. Format                                   : AC-3
  78. Format/Info                              : Audio Coding 3
  79. Commercial name                          : Dolby Digital
  80. Codec ID                                 : A_AC3
  81. Duration                                 : 1 h 45 min
  82. Bit rate mode                            : Constant
  83. Bit rate                                 : 640 kb/s
  84. Channel(s)                               : 6 channels
  85. Channel layout                           : L R C LFE Ls Rs
  86. Sampling rate                            : 48.0 kHz
  87. Frame rate                               : 31.250 FPS (1536 SPF)
  88. Compression mode                         : Lossy
  89. Stream size                              : 482 MiB (2%)
  90. Title                                    : DD 5.1
  91. Language                                 : French
  92. Service kind                             : Complete Main
  93. Default                                  : No
  94. Forced                                   : No
  95. Original source medium                   : Blu-ray
  96. Audio #4
  97. ID                                       : 5
  98. ID in the original source medium         : 4355 (0x1103)
  99. Format                                   : AC-3
  100. Format/Info                              : Audio Coding 3
  101. Commercial name                          : Dolby Digital
  102. Codec ID                                 : A_AC3
  103. Duration                                 : 1 h 45 min
  104. Bit rate mode                            : Constant
  105. Bit rate                                 : 192 kb/s
  106. Channel(s)                               : 2 channels
  107. Channel layout                           : L R
  108. Sampling rate                            : 48.0 kHz
  109. Frame rate                               : 31.250 FPS (1536 SPF)
  110. Compression mode                         : Lossy
  111. Stream size                              : 145 MiB (0%)
  112. Title                                    : DD 2.0
  113. Language                                 : English
  114. Service kind                             : Complete Main
  115. Default                                  : No
  116. Forced                                   : No
  117. Original source medium                   : Blu-ray
  118. Text #1
  119. ID                                       : 6
  120. Format                                   : UTF-8
  121. Codec ID                                 : S_TEXT/UTF8
  122. Codec ID/Info                            : UTF-8 Plain Text
  123. Duration                                 : 1 h 36 min
  124. Bit rate                                 : 56 b/s
  125. Count of elements                        : 1080
  126. Stream size                              : 40.2 KiB (0%)
  127. Language                                 : English
  128. Default                                  : Yes
  129. Forced                                   : No
  130. Text #2
  131. ID                                       : 7
  132. Format                                   : UTF-8
  133. Codec ID                                 : S_TEXT/UTF8
  134. Codec ID/Info                            : UTF-8 Plain Text
  135. Duration                                 : 1 h 36 min
  136. Bit rate                                 : 59 b/s
  137. Count of elements                        : 1166
  138. Stream size                              : 41.9 KiB (0%)
  139. Title                                    : SDH
  140. Language                                 : English
  141. Default                                  : No
  142. Forced                                   : No
  143. Text #3
  144. ID                                       : 8
  145. ID in the original source medium         : 4608 (0x1200)
  146. Format                                   : PGS
  147. Muxing mode                              : zlib
  148. Codec ID                                 : S_HDMV/PGS
  149. Codec ID/Info                            : Picture based subtitle format used on BDs/HD-DVDs
  150. Duration                                 : 1 h 36 min
  151. Bit rate                                 : 34.6 kb/s
  152. Count of elements                        : 2274
  153. Stream size                              : 23.9 MiB (0%)
  154. Language                                 : English
  155. Default                                  : No
  156. Forced                                   : No
  157. Original source medium                   : Blu-ray
  158. Text #4
  159. ID                                       : 9
  160. ID in the original source medium         : 4609 (0x1201)
  161. Format                                   : PGS
  162. Muxing mode                              : zlib
  163. Codec ID                                 : S_HDMV/PGS
  164. Codec ID/Info                            : Picture based subtitle format used on BDs/HD-DVDs
  165. Duration                                 : 1 h 36 min
  166. Bit rate                                 : 37.8 kb/s
  167. Count of elements                        : 2346
  168. Stream size                              : 26.1 MiB (0%)
  169. Language                                 : English
  170. Default                                  : No
  171. Forced                                   : No
  172. Original source medium                   : Blu-ray
  173. Text #5
  174. ID                                       : 10
  175. ID in the original source medium         : 4610 (0x1202)
  176. Format                                   : PGS
  177. Muxing mode                              : zlib
  178. Codec ID                                 : S_HDMV/PGS
  179. Codec ID/Info                            : Picture based subtitle format used on BDs/HD-DVDs
  180. Duration                                 : 1 h 43 min
  181. Bit rate                                 : 33.0 kb/s
  182. Count of elements                        : 2142
  183. Stream size                              : 24.5 MiB (0%)
  184. Language                                 : French
  185. Default                                  : No
  186. Forced                                   : No
  187. Original source medium                   : Blu-ray
  188. Text #6
  189. ID                                       : 11
  190. ID in the original source medium         : 4611 (0x1203)
  191. Format                                   : PGS
  192. Muxing mode                              : zlib
  193. Codec ID                                 : S_HDMV/PGS
  194. Codec ID/Info                            : Picture based subtitle format used on BDs/HD-DVDs
  195. Duration                                 : 1 h 40 min
  196. Bit rate                                 : 68.5 kb/s
  197. Count of elements                        : 3174
  198. Stream size                              : 49.1 MiB (0%)
  199. Language                                 : English
  200. Default                                  : No
  201. Forced                                   : No
  202. Original source medium                   : Blu-ray
  203. Text #7
  204. ID                                       : 12
  205. ID in the original source medium         : 4612 (0x1204)
  206. Format                                   : PGS
  207. Muxing mode                              : zlib
  208. Codec ID                                 : S_HDMV/PGS
  209. Codec ID/Info                            : Picture based subtitle format used on BDs/HD-DVDs
  210. Duration                                 : 1 h 44 min
  211. Bit rate                                 : 60.5 kb/s
  212. Count of elements                        : 3471
  213. Stream size                              : 45.5 MiB (0%)
  214. Language                                 : French
  215. Default                                  : No
  216. Forced                                   : No
  217. Original source medium                   : Blu-ray
  218. Text #8
  219. ID                                       : 13
  220. ID in the original source medium         : 4613 (0x1205)
  221. Format                                   : PGS
  222. Muxing mode                              : zlib
  223. Codec ID                                 : S_HDMV/PGS
  224. Codec ID/Info                            : Picture based subtitle format used on BDs/HD-DVDs
  225. Duration                                 : 1 h 43 min
  226. Bit rate                                 : 130 b/s
  227. Count of elements                        : 12
  228. Stream size                              : 98.9 KiB (0%)
  229. Language                                 : French
  230. Default                                  : No
  231. Forced                                   : No
  232. Original source medium                   : Blu-ray
  233. Text #9
  234. ID                                       : 14
  235. ID in the original source medium         : 4613 (0x1205)
  236. Format                                   : PGS
  237. Muxing mode                              : zlib
  238. Codec ID                                 : S_HDMV/PGS
  239. Codec ID/Info                            : Picture based subtitle format used on BDs/HD-DVDs
  240. Duration                                 : 1 h 43 min
  241. Bit rate                                 : 130 b/s
  242. Count of elements                        : 12
  243. Stream size                              : 98.9 KiB (0%)
  244. Language                                 : French
  245. Default                                  : No
  246. Forced                                   : No
  247. Original source medium                   : Blu-ray
  248. Menu
  249. 00:00:00.000                             : en:Chapter 01
  250. 00:06:33.267                             : en:Chapter 02
  251. 00:10:31.339                             : en:Chapter 03
  252. 00:15:43.984                             : en:Chapter 04
  253. 00:18:33.904                             : en:Chapter 05
  254. 00:26:26.376                             : en:Chapter 06
  255. 00:32:17.727                             : en:Chapter 07
  256. 00:38:05.616                             : en:Chapter 08
  257. 00:43:47.875                             : en:Chapter 09
  258. 00:49:52.030                             : en:Chapter 10
  259. 00:55:54.642                             : en:Chapter 11
  260. 01:00:37.800                             : en:Chapter 12
  261. 01:04:25.152                             : en:Chapter 13
  262. 01:08:32.983                             : en:Chapter 14
  263. 01:14:44.438                             : en:Chapter 15
  264. 01:19:16.668                             : en:Chapter 16
  265. 01:23:21.246                             : en:Chapter 17
  266. 01:26:12.500                             : en:Chapter 18
  267. 01:32:51.107                             : en:Chapter 19
  268. 01:38:59.683                             : en:Chapter 20
复制代码



蓝光高清网提示您 点击下方附件即可下载

梦想奔驰 Dreamer.Inspired.By.A.True.Story.2005.1080p.BluRay.REMUX.AVC.DTS-HD.MA.5.1-FGT 29.61GB

Dreamer.Inspired.By.A.True.Story.2005.1080p.BluRay.REMUX.AVC.DTS-HD.MA.5.1-FGT.torrent ( 37.68 KB )

加入蓝光高清网VIP会员  无限制下载本站所有资源---点这里

资源下载、资源播放、字幕使用、无法下载等常见问题---点这里
回复

使用道具 举报

全部回复0 显示全部楼层

声明:您在社区发表的所有信息仅代表用户个人观点,与本网站立场无关,希望各位烧友理性发言,不发表违法国家法律禁止的话题。

您需要登录后才可以回帖 登录 | 立即注册

本版积分规则

联系客服 关注微信 下载APP 返回顶部 返回列表