蓝光高清网

搜索
开启左侧

[剧情片] 飞越疯人院 One.Flew.Over.the.Cuckoos.Nest.1975.1080p.BluRay.REMUX.VC-1.DD5.1-FGT 16.21GB

蓝鸟 发表于 2022-6-2 17:50:22 | 显示全部楼层 |阅读模式 来自: 中国重庆

飞越疯人院 One.Flew.Over.the.Cuckoos.Nest.1975.1080p.BluRay.REMUX.VC-1.DD5.1-FGT 16.21GB

飞越疯人院 One.Flew.Over.the.Cuckoos.Nest.1975.1080p.BluRay.REMUX.VC-1.DD5.1-FGT 16.21GB


译  名 飞越疯人院 / 飞越杜鹃窝(台) / 飞越喜鹊巢
片  名 One Flew Over the Cuckoo''s Nest
年  代 1975
产  地 美国
类  别 剧情
语  言 英语
上映日期 1975-11-19(美国)
豆瓣评分 9.1/10 (504815人评价)
片  长 133分钟
导  演 米洛斯·福尔曼 Milo? Forman
编  剧 劳伦斯·奥邦 Lawrence Hauben
       博·古德曼 Bo Goldman
       肯·凯西 Ken Kesey
       达尔·瓦瑟曼 Dale Wasserman
演  员 杰克·尼科尔森 Jack Nicholson
       丹尼·德维托 Danny DeVito
       克里斯托弗·洛伊德 Christopher Lloyd
       路易丝·弗莱彻 Louise Fletcher
       威尔·萨姆森 Will Sampson
       特德·马克兰德 Ted Markland
       布拉德·道里夫 Brad Dourif
       斯加特曼·克罗索斯 Scatman Crothers
       迈克尔·贝里曼 Michael Berryman
       彼得·布罗科 Peter Brocco
       穆瓦科·卡姆布卡 Mwako Cumbuka
       威廉·达尔 William Duell
       乔西普·艾利克 Josip Elic
       西德尼·拉斯克 Sydney Lassick
       凯·李 Kay Lee
       德怀特·马费尔德 Dwight Marfield
       路易莎·莫里茨 Louisa Moritz
       威廉·雷德菲尔德 William Redfield
       菲利普·罗斯 Philip Roth
       米米·萨奇席恩 Mimi Sarkisian
       文森特·斯卡维利 Vincent Schiavelli
       米斯·斯马尔 Mews Small
       德罗斯·V·史密斯 Delos V. Smith Jr.
       迈克尔·道格拉斯 Michael Douglas
       柯克·道格拉斯 Kirk Douglas
       博·古德曼 Bo Goldman
       索尔·扎恩兹 Saul Zaentz
       肯·凯西 Ken Kesey
       厄比·史密斯 Irby Smith
       迈克尔·道格拉斯 Michael Douglas
       索尔·扎恩兹 Saul Zaentz
       Jonathan Halperin Jonathan Halperin
       比尔·泽西 Bill Jersey
       杰克·尼切 Jack Nitzsche
       赵汝钜 Richard Chew
       琳齐·克林曼 Lynzee Klingman
       谢尔顿·卡恩 Sheldon Kahn
       迈克·芬顿 Mike Fenton
       埃德温·奥多诺文 Edwin O''Donovan
       厄比·史密斯 Irby Smith
       William Saint John William Saint John

简  介

麦克墨菲(杰克·尼科尔森 Jack Nicholson 饰)为了逃避监狱里的强制劳动,装作精神异常,被送进了精神病院,他的到来,给死气沉沉的精神病院带来了剧烈的冲击。 麦克要求看棒球比赛的电视转播,挑战了医院严格的管理制度,受到护士长拉契特(路易丝·弗莱彻 Louise Fletcher 饰)的百般阻挠;麦克带领病人出海捕鱼,振奋了他们的精神,却让院方头痛不已。院方为了惩处麦克胆大妄为、屡犯院规,决定将他永远留在疯人院。生性自由的麦克再也无法忍受疯人院的生活,他联合病友,高大的印第安人“酋长”,开始自己的计划:飞越疯人院。 本片获1975年第48届奥斯卡最佳影片,最佳男、女主角,最佳导演和最佳改编剧本五项大奖。主人公“不自由,毋宁死”的精神在当今社会仍有很大的现实意义。


获奖情况 (共9项)

第48届奥斯卡金像奖 (1976)
  最佳影片
  最佳导演
   └──米洛斯·福尔曼
  最佳男主角
   └──杰克·尼科尔森
  最佳女主角
   └──路易丝·弗莱彻
  最佳男配角(提名)
   └──布拉德·道里夫
  最佳改编剧本
  最佳摄影(提名)
  最佳剪辑(提名)
  剧情片最佳原创配乐(提名)
   └──杰克·尼切


影片参数
  1. Video
  2. ID                                       : 1
  3. ID in the original source medium         : 4113 (0x1011)
  4. Format                                   : VC-1
  5. Format profile                           : [email protected]
  6. Codec ID                                 : V_MS/VFW/FOURCC / WVC1
  7. Codec ID/Hint                            : Microsoft
  8. Duration                                 : 2 h 13 min
  9. Bit rate                                 : 14.2 Mb/s
  10. Width                                    : 1 920 pixels
  11. Height                                   : 1 080 pixels
  12. Display aspect ratio                     : 16:9
  13. Frame rate mode                          : Constant
  14. Frame rate                               : 23.976 (24000/1001/189150) FPS
  15. Color space                              : YUV
  16. Chroma subsampling                       : 4:2:0
  17. Bit depth                                : 8 bits
  18. Scan type                                : Progressive
  19. Compression mode                         : Lossy
  20. Bits/(Pixel*Frame)                       : 0.287
  21. Stream size                              : 13.3 GiB (82%)
  22. Language                                 : English
  23. Default                                  : No
  24. Forced                                   : No
  25. Original source medium                   : Blu-ray
  26. Audio #1
  27. ID                                       : 2
  28. ID in the original source medium         : 4352 (0x1100)
  29. Format                                   : AC-3
  30. Format/Info                              : Audio Coding 3
  31. Commercial name                          : Dolby Digital
  32. Codec ID                                 : A_AC3
  33. Duration                                 : 2 h 13 min
  34. Bit rate mode                            : Constant
  35. Bit rate                                 : 640 kb/s
  36. Channel(s)                               : 6 channels
  37. Channel layout                           : L R C LFE Ls Rs
  38. Sampling rate                            : 48.0 kHz
  39. Frame rate                               : 31.250 FPS (1536 SPF)
  40. Compression mode                         : Lossy
  41. Stream size                              : 612 MiB (4%)
  42. Title                                    : DD 5.1
  43. Language                                 : English
  44. Service kind                             : Complete Main
  45. Default                                  : Yes
  46. Forced                                   : No
  47. Original source medium                   : Blu-ray
  48. Audio #2
  49. ID                                       : 3
  50. ID in the original source medium         : 4353 (0x1101)
  51. Format                                   : AC-3
  52. Format/Info                              : Audio Coding 3
  53. Commercial name                          : Dolby Digital
  54. Codec ID                                 : A_AC3
  55. Duration                                 : 2 h 13 min
  56. Bit rate mode                            : Constant
  57. Bit rate                                 : 192 kb/s
  58. Channel(s)                               : 1 channel
  59. Channel layout                           : C
  60. Sampling rate                            : 48.0 kHz
  61. Frame rate                               : 31.250 FPS (1536 SPF)
  62. Compression mode                         : Lossy
  63. Stream size                              : 184 MiB (1%)
  64. Title                                    : DD 1.0
  65. Language                                 : French
  66. Service kind                             : Complete Main
  67. Default                                  : No
  68. Forced                                   : No
  69. Original source medium                   : Blu-ray
  70. Audio #3
  71. ID                                       : 4
  72. ID in the original source medium         : 4354 (0x1102)
  73. Format                                   : AC-3
  74. Format/Info                              : Audio Coding 3
  75. Commercial name                          : Dolby Digital
  76. Codec ID                                 : A_AC3
  77. Duration                                 : 2 h 13 min
  78. Bit rate mode                            : Constant
  79. Bit rate                                 : 192 kb/s
  80. Channel(s)                               : 1 channel
  81. Channel layout                           : C
  82. Sampling rate                            : 48.0 kHz
  83. Frame rate                               : 31.250 FPS (1536 SPF)
  84. Compression mode                         : Lossy
  85. Stream size                              : 184 MiB (1%)
  86. Title                                    : DD 1.0
  87. Language                                 : German
  88. Service kind                             : Complete Main
  89. Default                                  : No
  90. Forced                                   : No
  91. Original source medium                   : Blu-ray
  92. Audio #4
  93. ID                                       : 5
  94. ID in the original source medium         : 4355 (0x1103)
  95. Format                                   : AC-3
  96. Format/Info                              : Audio Coding 3
  97. Commercial name                          : Dolby Digital
  98. Codec ID                                 : A_AC3
  99. Duration                                 : 2 h 13 min
  100. Bit rate mode                            : Constant
  101. Bit rate                                 : 192 kb/s
  102. Channel(s)                               : 1 channel
  103. Channel layout                           : C
  104. Sampling rate                            : 48.0 kHz
  105. Frame rate                               : 31.250 FPS (1536 SPF)
  106. Compression mode                         : Lossy
  107. Stream size                              : 184 MiB (1%)
  108. Title                                    : DD 1.0
  109. Language                                 : Italian
  110. Service kind                             : Complete Main
  111. Default                                  : No
  112. Forced                                   : No
  113. Original source medium                   : Blu-ray
  114. Audio #5
  115. ID                                       : 6
  116. ID in the original source medium         : 4356 (0x1104)
  117. Format                                   : AC-3
  118. Format/Info                              : Audio Coding 3
  119. Commercial name                          : Dolby Digital
  120. Codec ID                                 : A_AC3
  121. Duration                                 : 2 h 13 min
  122. Bit rate mode                            : Constant
  123. Bit rate                                 : 192 kb/s
  124. Channel(s)                               : 1 channel
  125. Channel layout                           : C
  126. Sampling rate                            : 48.0 kHz
  127. Frame rate                               : 31.250 FPS (1536 SPF)
  128. Compression mode                         : Lossy
  129. Stream size                              : 184 MiB (1%)
  130. Title                                    : DD 1.0
  131. Language                                 : Spanish
  132. Service kind                             : Complete Main
  133. Default                                  : No
  134. Forced                                   : No
  135. Original source medium                   : Blu-ray
  136. Audio #6
  137. ID                                       : 7
  138. ID in the original source medium         : 4357 (0x1105)
  139. Format                                   : AC-3
  140. Format/Info                              : Audio Coding 3
  141. Commercial name                          : Dolby Digital
  142. Codec ID                                 : A_AC3
  143. Duration                                 : 2 h 13 min
  144. Bit rate mode                            : Constant
  145. Bit rate                                 : 192 kb/s
  146. Channel(s)                               : 1 channel
  147. Channel layout                           : C
  148. Sampling rate                            : 48.0 kHz
  149. Frame rate                               : 31.250 FPS (1536 SPF)
  150. Compression mode                         : Lossy
  151. Stream size                              : 184 MiB (1%)
  152. Title                                    : DD 1.0
  153. Language                                 : Czech
  154. Service kind                             : Complete Main
  155. Default                                  : No
  156. Forced                                   : No
  157. Original source medium                   : Blu-ray
  158. Audio #7
  159. ID                                       : 8
  160. ID in the original source medium         : 4358 (0x1106)
  161. Format                                   : AC-3
  162. Format/Info                              : Audio Coding 3
  163. Commercial name                          : Dolby Digital
  164. Codec ID                                 : A_AC3
  165. Duration                                 : 2 h 13 min
  166. Bit rate mode                            : Constant
  167. Bit rate                                 : 192 kb/s
  168. Channel(s)                               : 1 channel
  169. Channel layout                           : C
  170. Sampling rate                            : 48.0 kHz
  171. Frame rate                               : 31.250 FPS (1536 SPF)
  172. Compression mode                         : Lossy
  173. Stream size                              : 184 MiB (1%)
  174. Title                                    : DD 1.0
  175. Language                                 : Hungarian
  176. Service kind                             : Complete Main
  177. Default                                  : No
  178. Forced                                   : No
  179. Original source medium                   : Blu-ray
  180. Audio #8
  181. ID                                       : 9
  182. ID in the original source medium         : 4359 (0x1107)
  183. Format                                   : AC-3
  184. Format/Info                              : Audio Coding 3
  185. Commercial name                          : Dolby Digital
  186. Codec ID                                 : A_AC3
  187. Duration                                 : 2 h 13 min
  188. Bit rate mode                            : Constant
  189. Bit rate                                 : 192 kb/s
  190. Channel(s)                               : 1 channel
  191. Channel layout                           : C
  192. Sampling rate                            : 48.0 kHz
  193. Frame rate                               : 31.250 FPS (1536 SPF)
  194. Compression mode                         : Lossy
  195. Stream size                              : 184 MiB (1%)
  196. Title                                    : DD 1.0
  197. Language                                 : Polish
  198. Service kind                             : Complete Main
  199. Default                                  : No
  200. Forced                                   : No
  201. Original source medium                   : Blu-ray
  202. Audio #9
  203. ID                                       : 10
  204. ID in the original source medium         : 4360 (0x1108)
  205. Format                                   : AC-3
  206. Format/Info                              : Audio Coding 3
  207. Commercial name                          : Dolby Digital
  208. Codec ID                                 : A_AC3
  209. Duration                                 : 2 h 13 min
  210. Bit rate mode                            : Constant
  211. Bit rate                                 : 192 kb/s
  212. Channel(s)                               : 1 channel
  213. Channel layout                           : C
  214. Sampling rate                            : 48.0 kHz
  215. Frame rate                               : 31.250 FPS (1536 SPF)
  216. Compression mode                         : Lossy
  217. Stream size                              : 184 MiB (1%)
  218. Title                                    : DD 1.0
  219. Language                                 : Russian
  220. Service kind                             : Complete Main
  221. Default                                  : No
  222. Forced                                   : No
  223. Original source medium                   : Blu-ray
  224. Audio #10
  225. ID                                       : 11
  226. ID in the original source medium         : 4361 (0x1109)
  227. Format                                   : AC-3
  228. Format/Info                              : Audio Coding 3
  229. Commercial name                          : Dolby Digital
  230. Codec ID                                 : A_AC3
  231. Duration                                 : 2 h 13 min
  232. Bit rate mode                            : Constant
  233. Bit rate                                 : 192 kb/s
  234. Channel(s)                               : 1 channel
  235. Channel layout                           : C
  236. Sampling rate                            : 48.0 kHz
  237. Frame rate                               : 31.250 FPS (1536 SPF)
  238. Compression mode                         : Lossy
  239. Stream size                              : 184 MiB (1%)
  240. Title                                    : DD 1.0
  241. Language                                 : Thai
  242. Service kind                             : Complete Main
  243. Default                                  : No
  244. Forced                                   : No
  245. Original source medium                   : Blu-ray
  246. Audio #11
  247. ID                                       : 12
  248. ID in the original source medium         : 4362 (0x110A)
  249. Format                                   : AC-3
  250. Format/Info                              : Audio Coding 3
  251. Commercial name                          : Dolby Digital
  252. Codec ID                                 : A_AC3
  253. Duration                                 : 2 h 13 min
  254. Bit rate mode                            : Constant
  255. Bit rate                                 : 192 kb/s
  256. Channel(s)                               : 1 channel
  257. Channel layout                           : C
  258. Sampling rate                            : 48.0 kHz
  259. Frame rate                               : 31.250 FPS (1536 SPF)
  260. Compression mode                         : Lossy
  261. Stream size                              : 184 MiB (1%)
  262. Title                                    : DD 1.0
  263. Language                                 : Turkish
  264. Service kind                             : Complete Main
  265. Default                                  : No
  266. Forced                                   : No
  267. Original source medium                   : Blu-ray
  268. Audio #12
  269. ID                                       : 13
  270. ID in the original source medium         : 4363 (0x110B)
  271. Format                                   : AC-3
  272. Format/Info                              : Audio Coding 3
  273. Commercial name                          : Dolby Digital
  274. Codec ID                                 : A_AC3
  275. Duration                                 : 2 h 13 min
  276. Bit rate mode                            : Constant
  277. Bit rate                                 : 192 kb/s
  278. Channel(s)                               : 1 channel
  279. Channel layout                           : C
  280. Sampling rate                            : 48.0 kHz
  281. Frame rate                               : 31.250 FPS (1536 SPF)
  282. Compression mode                         : Lossy
  283. Stream size                              : 184 MiB (1%)
  284. Title                                    : DD 1.0
  285. Language                                 : English
  286. Service kind                             : Complete Main
  287. Default                                  : No
  288. Forced                                   : No
  289. Original source medium                   : Blu-ray
  290. Text #1
  291. ID                                       : 14
  292. Format                                   : UTF-8
  293. Codec ID                                 : S_TEXT/UTF8
  294. Codec ID/Info                            : UTF-8 Plain Text
  295. Duration                                 : 2 h 11 min
  296. Bit rate                                 : 60 b/s
  297. Count of elements                        : 1529
  298. Stream size                              : 58.4 KiB (0%)
  299. Language                                 : English
  300. Default                                  : Yes
  301. Forced                                   : No
  302. Text #2
  303. ID                                       : 15
  304. Format                                   : UTF-8
  305. Codec ID                                 : S_TEXT/UTF8
  306. Codec ID/Info                            : UTF-8 Plain Text
  307. Duration                                 : 2 h 12 min
  308. Bit rate                                 : 63 b/s
  309. Count of elements                        : 1705
  310. Stream size                              : 61.1 KiB (0%)
  311. Title                                    : SDH
  312. Language                                 : English
  313. Default                                  : No
  314. Forced                                   : No
  315. Text #3
  316. ID                                       : 16
  317. ID in the original source medium         : 4609 (0x1201)
  318. Format                                   : PGS
  319. Muxing mode                              : zlib
  320. Codec ID                                 : S_HDMV/PGS
  321. Codec ID/Info                            : Picture based subtitle format used on BDs/HD-DVDs
  322. Duration                                 : 2 h 12 min
  323. Bit rate                                 : 35.1 kb/s
  324. Count of elements                        : 3544
  325. Stream size                              : 33.1 MiB (0%)
  326. Language                                 : English
  327. Default                                  : No
  328. Forced                                   : No
  329. Original source medium                   : Blu-ray
  330. Text #4
  331. ID                                       : 17
  332. ID in the original source medium         : 4610 (0x1202)
  333. Format                                   : PGS
  334. Muxing mode                              : zlib
  335. Codec ID                                 : S_HDMV/PGS
  336. Codec ID/Info                            : Picture based subtitle format used on BDs/HD-DVDs
  337. Duration                                 : 2 h 13 min
  338. Bit rate                                 : 19.5 kb/s
  339. Count of elements                        : 2714
  340. Stream size                              : 18.6 MiB (0%)
  341. Language                                 : French
  342. Default                                  : No
  343. Forced                                   : No
  344. Original source medium                   : Blu-ray
  345. Text #5
  346. ID                                       : 18
  347. ID in the original source medium         : 4611 (0x1203)
  348. Format                                   : PGS
  349. Muxing mode                              : zlib
  350. Codec ID                                 : S_HDMV/PGS
  351. Codec ID/Info                            : Picture based subtitle format used on BDs/HD-DVDs
  352. Duration                                 : 2 h 12 min
  353. Bit rate                                 : 32.7 kb/s
  354. Count of elements                        : 3502
  355. Stream size                              : 30.9 MiB (0%)
  356. Language                                 : German
  357. Default                                  : No
  358. Forced                                   : No
  359. Original source medium                   : Blu-ray
  360. Text #6
  361. ID                                       : 19
  362. ID in the original source medium         : 4612 (0x1204)
  363. Format                                   : PGS
  364. Muxing mode                              : zlib
  365. Codec ID                                 : S_HDMV/PGS
  366. Codec ID/Info                            : Picture based subtitle format used on BDs/HD-DVDs
  367. Duration                                 : 2 h 13 min
  368. Bit rate                                 : 30.9 kb/s
  369. Count of elements                        : 3344
  370. Stream size                              : 29.6 MiB (0%)
  371. Language                                 : Italian
  372. Default                                  : No
  373. Forced                                   : No
  374. Original source medium                   : Blu-ray
  375. Text #7
  376. ID                                       : 20
  377. ID in the original source medium         : 4613 (0x1205)
  378. Format                                   : PGS
  379. Muxing mode                              : zlib
  380. Codec ID                                 : S_HDMV/PGS
  381. Codec ID/Info                            : Picture based subtitle format used on BDs/HD-DVDs
  382. Duration                                 : 2 h 13 min
  383. Bit rate                                 : 25.6 kb/s
  384. Count of elements                        : 3252
  385. Stream size                              : 24.3 MiB (0%)
  386. Language                                 : Spanish
  387. Default                                  : No
  388. Forced                                   : No
  389. Original source medium                   : Blu-ray
  390. Text #8
  391. ID                                       : 21
  392. ID in the original source medium         : 4614 (0x1206)
  393. Format                                   : PGS
  394. Muxing mode                              : zlib
  395. Codec ID                                 : S_HDMV/PGS
  396. Codec ID/Info                            : Picture based subtitle format used on BDs/HD-DVDs
  397. Duration                                 : 2 h 11 min
  398. Bit rate                                 : 26.5 kb/s
  399. Count of elements                        : 2930
  400. Stream size                              : 24.9 MiB (0%)
  401. Language                                 : Dutch
  402. Default                                  : No
  403. Forced                                   : No
  404. Original source medium                   : Blu-ray
  405. Text #9
  406. ID                                       : 22
  407. ID in the original source medium         : 4615 (0x1207)
  408. Format                                   : PGS
  409. Muxing mode                              : zlib
  410. Codec ID                                 : S_HDMV/PGS
  411. Codec ID/Info                            : Picture based subtitle format used on BDs/HD-DVDs
  412. Duration                                 : 2 h 13 min
  413. Bit rate                                 : 25.8 kb/s
  414. Count of elements                        : 3134
  415. Stream size                              : 24.6 MiB (0%)
  416. Language                                 : Chinese
  417. Default                                  : No
  418. Forced                                   : No
  419. Original source medium                   : Blu-ray
  420. Text #10
  421. ID                                       : 23
  422. ID in the original source medium         : 4616 (0x1208)
  423. Format                                   : PGS
  424. Muxing mode                              : zlib
  425. Codec ID                                 : S_HDMV/PGS
  426. Codec ID/Info                            : Picture based subtitle format used on BDs/HD-DVDs
  427. Duration                                 : 2 h 13 min
  428. Bit rate                                 : 20.9 kb/s
  429. Count of elements                        : 3120
  430. Stream size                              : 19.9 MiB (0%)
  431. Language                                 : Korean
  432. Default                                  : No
  433. Forced                                   : No
  434. Original source medium                   : Blu-ray
  435. Text #11
  436. ID                                       : 24
  437. ID in the original source medium         : 4617 (0x1209)
  438. Format                                   : PGS
  439. Muxing mode                              : zlib
  440. Codec ID                                 : S_HDMV/PGS
  441. Codec ID/Info                            : Picture based subtitle format used on BDs/HD-DVDs
  442. Duration                                 : 2 h 13 min
  443. Bit rate                                 : 26.3 kb/s
  444. Count of elements                        : 3182
  445. Stream size                              : 25.0 MiB (0%)
  446. Language                                 : Spanish
  447. Default                                  : No
  448. Forced                                   : No
  449. Original source medium                   : Blu-ray
  450. Text #12
  451. ID                                       : 25
  452. ID in the original source medium         : 4618 (0x120A)
  453. Format                                   : PGS
  454. Muxing mode                              : zlib
  455. Codec ID                                 : S_HDMV/PGS
  456. Codec ID/Info                            : Picture based subtitle format used on BDs/HD-DVDs
  457. Duration                                 : 2 h 13 min
  458. Bit rate                                 : 21.3 kb/s
  459. Count of elements                        : 2630
  460. Stream size                              : 20.2 MiB (0%)
  461. Language                                 : Portuguese
  462. Default                                  : No
  463. Forced                                   : No
  464. Original source medium                   : Blu-ray
  465. Text #13
  466. ID                                       : 26
  467. ID in the original source medium         : 4619 (0x120B)
  468. Format                                   : PGS
  469. Muxing mode                              : zlib
  470. Codec ID                                 : S_HDMV/PGS
  471. Codec ID/Info                            : Picture based subtitle format used on BDs/HD-DVDs
  472. Duration                                 : 2 h 13 min
  473. Bit rate                                 : 12.2 kb/s
  474. Count of elements                        : 2388
  475. Stream size                              : 11.6 MiB (0%)
  476. Language                                 : Arabic
  477. Default                                  : No
  478. Forced                                   : No
  479. Original source medium                   : Blu-ray
  480. Text #14
  481. ID                                       : 27
  482. ID in the original source medium         : 4620 (0x120C)
  483. Format                                   : PGS
  484. Muxing mode                              : zlib
  485. Codec ID                                 : S_HDMV/PGS
  486. Codec ID/Info                            : Picture based subtitle format used on BDs/HD-DVDs
  487. Duration                                 : 2 h 13 min
  488. Bit rate                                 : 25.1 kb/s
  489. Count of elements                        : 3286
  490. Stream size                              : 23.8 MiB (0%)
  491. Language                                 : Bulgarian
  492. Default                                  : No
  493. Forced                                   : No
  494. Original source medium                   : Blu-ray
  495. Text #15
  496. ID                                       : 28
  497. ID in the original source medium         : 4621 (0x120D)
  498. Format                                   : PGS
  499. Muxing mode                              : zlib
  500. Codec ID                                 : S_HDMV/PGS
  501. Codec ID/Info                            : Picture based subtitle format used on BDs/HD-DVDs
  502. Duration                                 : 2 h 13 min
  503. Bit rate                                 : 25.9 kb/s
  504. Count of elements                        : 3282
  505. Stream size                              : 24.7 MiB (0%)
  506. Language                                 : Croatian
  507. Default                                  : No
  508. Forced                                   : No
  509. Original source medium                   : Blu-ray
  510. Text #16
  511. ID                                       : 29
  512. ID in the original source medium         : 4622 (0x120E)
  513. Format                                   : PGS
  514. Muxing mode                              : zlib
  515. Codec ID                                 : S_HDMV/PGS
  516. Codec ID/Info                            : Picture based subtitle format used on BDs/HD-DVDs
  517. Duration                                 : 2 h 13 min
  518. Bit rate                                 : 22.6 kb/s
  519. Count of elements                        : 3248
  520. Stream size                              : 21.5 MiB (0%)
  521. Language                                 : Czech
  522. Default                                  : No
  523. Forced                                   : No
  524. Original source medium                   : Blu-ray
  525. Text #17
  526. ID                                       : 30
  527. ID in the original source medium         : 4623 (0x120F)
  528. Format                                   : PGS
  529. Muxing mode                              : zlib
  530. Codec ID                                 : S_HDMV/PGS
  531. Codec ID/Info                            : Picture based subtitle format used on BDs/HD-DVDs
  532. Duration                                 : 2 h 13 min
  533. Bit rate                                 : 22.7 kb/s
  534. Count of elements                        : 3242
  535. Stream size                              : 21.6 MiB (0%)
  536. Language                                 : Danish
  537. Default                                  : No
  538. Forced                                   : No
  539. Original source medium                   : Blu-ray
  540. Text #18
  541. ID                                       : 31
  542. ID in the original source medium         : 4624 (0x1210)
  543. Format                                   : PGS
  544. Muxing mode                              : zlib
  545. Codec ID                                 : S_HDMV/PGS
  546. Codec ID/Info                            : Picture based subtitle format used on BDs/HD-DVDs
  547. Duration                                 : 2 h 13 min
  548. Bit rate                                 : 20.2 kb/s
  549. Count of elements                        : 1936
  550. Stream size                              : 19.2 MiB (0%)
  551. Language                                 : Estonian
  552. Default                                  : No
  553. Forced                                   : No
  554. Original source medium                   : Blu-ray
  555. Text #19
  556. ID                                       : 32
  557. ID in the original source medium         : 4625 (0x1211)
  558. Format                                   : PGS
  559. Muxing mode                              : zlib
  560. Codec ID                                 : S_HDMV/PGS
  561. Codec ID/Info                            : Picture based subtitle format used on BDs/HD-DVDs
  562. Duration                                 : 2 h 13 min
  563. Bit rate                                 : 22.4 kb/s
  564. Count of elements                        : 3010
  565. Stream size                              : 21.3 MiB (0%)
  566. Language                                 : Finnish
  567. Default                                  : No
  568. Forced                                   : No
  569. Original source medium                   : Blu-ray
  570. Text #20
  571. ID                                       : 33
  572. ID in the original source medium         : 4626 (0x1212)
  573. Format                                   : PGS
  574. Muxing mode                              : zlib
  575. Codec ID                                 : S_HDMV/PGS
  576. Codec ID/Info                            : Picture based subtitle format used on BDs/HD-DVDs
  577. Duration                                 : 2 h 13 min
  578. Bit rate                                 : 26.5 kb/s
  579. Count of elements                        : 3284
  580. Stream size                              : 25.2 MiB (0%)
  581. Language                                 : Greek
  582. Default                                  : No
  583. Forced                                   : No
  584. Original source medium                   : Blu-ray
  585. Text #21
  586. ID                                       : 34
  587. ID in the original source medium         : 4627 (0x1213)
  588. Format                                   : PGS
  589. Muxing mode                              : zlib
  590. Codec ID                                 : S_HDMV/PGS
  591. Codec ID/Info                            : Picture based subtitle format used on BDs/HD-DVDs
  592. Duration                                 : 2 h 13 min
  593. Bit rate                                 : 16.5 kb/s
  594. Count of elements                        : 2396
  595. Stream size                              : 15.7 MiB (0%)
  596. Language                                 : Hebrew
  597. Default                                  : No
  598. Forced                                   : No
  599. Original source medium                   : Blu-ray
  600. Text #22
  601. ID                                       : 35
  602. ID in the original source medium         : 4628 (0x1214)
  603. Format                                   : PGS
  604. Muxing mode                              : zlib
  605. Codec ID                                 : S_HDMV/PGS
  606. Codec ID/Info                            : Picture based subtitle format used on BDs/HD-DVDs
  607. Duration                                 : 2 h 13 min
  608. Bit rate                                 : 28.3 kb/s
  609. Count of elements                        : 3284
  610. Stream size                              : 26.9 MiB (0%)
  611. Language                                 : Hungarian
  612. Default                                  : No
  613. Forced                                   : No
  614. Original source medium                   : Blu-ray
  615. Text #23
  616. ID                                       : 36
  617. ID in the original source medium         : 4629 (0x1215)
  618. Format                                   : PGS
  619. Muxing mode                              : zlib
  620. Codec ID                                 : S_HDMV/PGS
  621. Codec ID/Info                            : Picture based subtitle format used on BDs/HD-DVDs
  622. Duration                                 : 2 h 13 min
  623. Bit rate                                 : 22.7 kb/s
  624. Count of elements                        : 3172
  625. Stream size                              : 21.6 MiB (0%)
  626. Language                                 : Norwegian
  627. Default                                  : No
  628. Forced                                   : No
  629. Original source medium                   : Blu-ray
  630. Text #24
  631. ID                                       : 37
  632. ID in the original source medium         : 4630 (0x1216)
  633. Format                                   : PGS
  634. Muxing mode                              : zlib
  635. Codec ID                                 : S_HDMV/PGS
  636. Codec ID/Info                            : Picture based subtitle format used on BDs/HD-DVDs
  637. Duration                                 : 2 h 11 min
  638. Bit rate                                 : 24.3 kb/s
  639. Count of elements                        : 3276
  640. Stream size                              : 22.8 MiB (0%)
  641. Language                                 : Polish
  642. Default                                  : No
  643. Forced                                   : No
  644. Original source medium                   : Blu-ray
  645. Text #25
  646. ID                                       : 38
  647. ID in the original source medium         : 4631 (0x1217)
  648. Format                                   : PGS
  649. Muxing mode                              : zlib
  650. Codec ID                                 : S_HDMV/PGS
  651. Codec ID/Info                            : Picture based subtitle format used on BDs/HD-DVDs
  652. Duration                                 : 2 h 13 min
  653. Bit rate                                 : 25.9 kb/s
  654. Count of elements                        : 3286
  655. Stream size                              : 24.6 MiB (0%)
  656. Language                                 : Portuguese
  657. Default                                  : No
  658. Forced                                   : No
  659. Original source medium                   : Blu-ray
  660. Text #26
  661. ID                                       : 39
  662. ID in the original source medium         : 4632 (0x1218)
  663. Format                                   : PGS
  664. Muxing mode                              : zlib
  665. Codec ID                                 : S_HDMV/PGS
  666. Codec ID/Info                            : Picture based subtitle format used on BDs/HD-DVDs
  667. Duration                                 : 2 h 11 min
  668. Bit rate                                 : 23.7 kb/s
  669. Count of elements                        : 3276
  670. Stream size                              : 22.2 MiB (0%)
  671. Language                                 : Romanian
  672. Default                                  : No
  673. Forced                                   : No
  674. Original source medium                   : Blu-ray
  675. Text #27
  676. ID                                       : 40
  677. ID in the original source medium         : 4633 (0x1219)
  678. Format                                   : PGS
  679. Muxing mode                              : zlib
  680. Codec ID                                 : S_HDMV/PGS
  681. Codec ID/Info                            : Picture based subtitle format used on BDs/HD-DVDs
  682. Duration                                 : 2 h 13 min
  683. Bit rate                                 : 26.7 kb/s
  684. Count of elements                        : 3444
  685. Stream size                              : 25.4 MiB (0%)
  686. Language                                 : Russian
  687. Default                                  : No
  688. Forced                                   : No
  689. Original source medium                   : Blu-ray
  690. Text #28
  691. ID                                       : 41
  692. ID in the original source medium         : 4634 (0x121A)
  693. Format                                   : PGS
  694. Muxing mode                              : zlib
  695. Codec ID                                 : S_HDMV/PGS
  696. Codec ID/Info                            : Picture based subtitle format used on BDs/HD-DVDs
  697. Duration                                 : 2 h 13 min
  698. Bit rate                                 : 25.0 kb/s
  699. Count of elements                        : 3122
  700. Stream size                              : 23.8 MiB (0%)
  701. Language                                 : Slovenian
  702. Default                                  : No
  703. Forced                                   : No
  704. Original source medium                   : Blu-ray
  705. Text #29
  706. ID                                       : 42
  707. ID in the original source medium         : 4635 (0x121B)
  708. Format                                   : PGS
  709. Muxing mode                              : zlib
  710. Codec ID                                 : S_HDMV/PGS
  711. Codec ID/Info                            : Picture based subtitle format used on BDs/HD-DVDs
  712. Duration                                 : 2 h 13 min
  713. Bit rate                                 : 20.8 kb/s
  714. Count of elements                        : 3020
  715. Stream size                              : 19.8 MiB (0%)
  716. Language                                 : Swedish
  717. Default                                  : No
  718. Forced                                   : No
  719. Original source medium                   : Blu-ray
  720. Text #30
  721. ID                                       : 43
  722. ID in the original source medium         : 4636 (0x121C)
  723. Format                                   : PGS
  724. Muxing mode                              : zlib
  725. Codec ID                                 : S_HDMV/PGS
  726. Codec ID/Info                            : Picture based subtitle format used on BDs/HD-DVDs
  727. Duration                                 : 2 h 13 min
  728. Bit rate                                 : 26.2 kb/s
  729. Count of elements                        : 3122
  730. Stream size                              : 24.9 MiB (0%)
  731. Language                                 : Thai
  732. Default                                  : No
  733. Forced                                   : No
  734. Original source medium                   : Blu-ray
  735. Text #31
  736. ID                                       : 44
  737. ID in the original source medium         : 4636 (0x121C)
  738. Format                                   : PGS
  739. Muxing mode                              : zlib
  740. Codec ID                                 : S_HDMV/PGS
  741. Codec ID/Info                            : Picture based subtitle format used on BDs/HD-DVDs
  742. Duration                                 : 1 h 50 min
  743. Bit rate                                 : 15 b/s
  744. Count of elements                        : 4
  745. Stream size                              : 12.8 KiB (0%)
  746. Language                                 : Thai
  747. Default                                  : No
  748. Forced                                   : No
  749. Original source medium                   : Blu-ray
  750. Text #32
  751. ID                                       : 45
  752. ID in the original source medium         : 4637 (0x121D)
  753. Format                                   : PGS
  754. Muxing mode                              : zlib
  755. Codec ID                                 : S_HDMV/PGS
  756. Codec ID/Info                            : Picture based subtitle format used on BDs/HD-DVDs
  757. Duration                                 : 2 h 13 min
  758. Bit rate                                 : 28.8 kb/s
  759. Count of elements                        : 3250
  760. Stream size                              : 27.4 MiB (0%)
  761. Language                                 : Turkish
  762. Default                                  : No
  763. Forced                                   : No
  764. Original source medium                   : Blu-ray
  765. Text #33
  766. ID                                       : 46
  767. ID in the original source medium         : 4637 (0x121D)
  768. Format                                   : PGS
  769. Muxing mode                              : zlib
  770. Codec ID                                 : S_HDMV/PGS
  771. Codec ID/Info                            : Picture based subtitle format used on BDs/HD-DVDs
  772. Duration                                 : 2 h 11 min
  773. Bit rate                                 : 140 b/s
  774. Count of elements                        : 18
  775. Stream size                              : 135 KiB (0%)
  776. Language                                 : Turkish
  777. Default                                  : No
  778. Forced                                   : No
  779. Original source medium                   : Blu-ray
  780. Text #34
  781. ID                                       : 47
  782. ID in the original source medium         : 4638 (0x121E)
  783. Format                                   : PGS
  784. Muxing mode                              : zlib
  785. Codec ID                                 : S_HDMV/PGS
  786. Codec ID/Info                            : Picture based subtitle format used on BDs/HD-DVDs
  787. Duration                                 : 2 h 13 min
  788. Bit rate                                 : 44.0 kb/s
  789. Count of elements                        : 4092
  790. Stream size                              : 42.0 MiB (0%)
  791. Language                                 : Chinese
  792. Default                                  : No
  793. Forced                                   : No
  794. Original source medium                   : Blu-ray
  795. Menu
  796. 00:00:00.000                             : en:Chapter 01
  797. 00:04:08.665                             : en:Chapter 02
  798. 00:08:29.008                             : en:Chapter 03
  799. 00:13:53.833                             : en:Chapter 04
  800. 00:21:06.974                             : en:Chapter 05
  801. 00:25:02.083                             : en:Chapter 06
  802. 00:27:23.892                             : en:Chapter 07
  803. 00:31:23.214                             : en:Chapter 08
  804. 00:34:11.924                             : en:Chapter 09
  805. 00:39:15.269                             : en:Chapter 10
  806. 00:47:18.961                             : en:Chapter 11
  807. 00:48:49.343                             : en:Chapter 12
  808. 00:51:25.749                             : en:Chapter 13
  809. 00:54:58.670                             : en:Chapter 14
  810. 01:02:05.388                             : en:Chapter 15
  811. 01:05:27.590                             : en:Chapter 16
  812. 01:06:56.470                             : en:Chapter 17
  813. 01:09:28.873                             : en:Chapter 18
  814. 01:10:46.450                             : en:Chapter 19
  815. 01:19:20.297                             : en:Chapter 20
  816. 01:26:50.038                             : en:Chapter 21
  817. 01:29:34.160                             : en:Chapter 22
  818. 01:36:53.098                             : en:Chapter 23
  819. 01:37:50.447                             : en:Chapter 24
  820. 01:41:24.286                             : en:Chapter 25
  821. 01:44:27.552                             : en:Chapter 26
  822. 01:50:39.466                             : en:Chapter 27
  823. 01:53:15.747                             : en:Chapter 28
  824. 01:59:02.260                             : en:Chapter 29
  825. 02:02:11.282                             : en:Chapter 30
  826. 02:04:12.695                             : en:Chapter 31
  827. 02:09:04.445                             : en:Chapter 32
  828. 02:11:25.752                             : en:Chapter 33
复制代码



蓝光高清网提示您 点击下方附件即可下载

飞越疯人院 One.Flew.Over.the.Cuckoos.Nest.1975.1080p.BluRay.REMUX.VC-1.DD5.1-FGT 16.21GB

One.Flew.Over.the.Cuckoos.Nest.1975.1080p.BluRay.REMUX.VC-1.DD5.1-FGT.torrent ( 20.93 KB )

加入蓝光高清网VIP会员  无限制下载本站所有资源---点这里

资源下载、资源播放、字幕使用、无法下载等常见问题---点这里
回复

使用道具 举报

全部回复0 显示全部楼层

声明:您在社区发表的所有信息仅代表用户个人观点,与本网站立场无关,希望各位烧友理性发言,不发表违法国家法律禁止的话题。

您需要登录后才可以回帖 登录 | 立即注册

本版积分规则

联系客服 关注微信 下载APP 返回顶部 返回列表