蓝光高清网

搜索
开启左侧

[剧情片] 盗梦空间 Inception.2010.1080p.BluRay.REMUX.VC-1.DTS-HD.MA.5.1-FGT 30.71GB

蓝鸟 发表于 2022-6-2 17:50:53 | 显示全部楼层 |阅读模式 来自: 中国重庆

盗梦空间 Inception.2010.1080p.BluRay.REMUX.VC-1.DTS-HD.MA.5.1-FGT 30.71GB

盗梦空间 Inception.2010.1080p.BluRay.REMUX.VC-1.DTS-HD.MA.5.1-FGT 30.71GB


译  名 盗梦空间 / 潜行凶间(港) / 全面启动(台) / 奠基 / 心灵犯案 / 记忆迷阵 / 记忆魔方
片  名 Inception
年  代 2010
产  地 美国 / 英国
类  别 剧情 / 科幻 / 悬疑 / 冒险
语  言 英语 / 日语 / 法语
上映日期 2010-09-01(中国大陆) / 2020-08-28(中国大陆重映) / 2010-07-16(美国)
豆瓣评分 9.4/10 (1869885人评价)
片  长 148分钟
导  演 克里斯托弗·诺兰 Christopher Nolan
编  剧 克里斯托弗·诺兰 Christopher Nolan
演  员 莱昂纳多·迪卡普里奥 Leonardo DiCaprio
       约瑟夫·高登-莱维特 Joseph Gordon-Levitt
       艾利奥特·佩吉 Elliot Page
       汤姆·哈迪 Tom Hardy
       渡边谦 Ken Watanabe
       迪利普·劳 Dileep Rao
       基里安·墨菲 Cillian Murphy
       汤姆·贝伦杰 Tom Berenger
       玛丽昂·歌迪亚 Marion Cotillard
       皮特·波斯尔思韦特 Pete Postlethwaite
       迈克尔·凯恩 Michael Caine
       卢卡斯·哈斯 Lukas Haas
       李太力 Tai-Li Lee
       克莱尔·吉尔蕾 Claire Geare
       马格努斯·诺兰 Magnus Nolan
       泰勒·吉蕾 Taylor Geare
       乔纳森·吉尔 Johnathan Geare
       水源士郎 Tohoru Masamune
       冈本玉二 Yuji Okumoto
       厄尔·卡梅伦 Earl Cameron
       瑞恩·海沃德 Ryan Hayward
       米兰达·诺兰 Miranda Nolan
       拉什·费加 Russ Fega
       蒂姆·科勒赫 Tim Kelleher
       妲露拉·莱莉 Talulah Riley
       迈克尔·加斯顿 Michael Gaston
       吉尔·马德雷尔 Jill Maddrell
       玛格丽特·因索利亚 Marguerite Insolia
       Natasha Beaumont Natasha Beaumont
       克里斯托弗·诺兰 Christopher Nolan
       艾玛·托马斯 Emma Thomas
       乔丹·戈登伯格 Jordan Goldberg
       托马斯·海斯利普 Thomas Hayslip
       托马斯·图尔 Thomas Tull
       汉斯·季默 Hans Zimmer
       沃利·菲斯特 Wally Pfister
       李·史密斯 Lee Smith
       约翰·帕帕席德拉 John Papsidera
       盖·亨德里克斯·戴斯 Guy Hendrix Dyas
       卢克·弗里伯恩 Luke Freeborn
       马修·格雷 Matthew Gray
       布拉德·里奇 Brad Ricker
       德安·沃尔科特 Dean Wolcott
       拉里·迪亚斯 Larry Dias
       道格拉斯·A·莫瓦特 Douglas A. Mowat
       杰弗里·库兰 Jeffrey Kurland
       特里·马里奥特 Terry Marriott

简  介

道姆·柯布(莱昂纳多·迪卡普里奥 Leonardo DiCaprio 饰)与同事阿瑟(约瑟夫·戈登-莱维特 Joseph Gordon-Levitt 饰)和纳什(卢卡斯·哈斯 Lukas Haas 饰)在一次针对日本能源大亨齐藤(渡边谦 饰)的盗梦行动中失败,反被齐藤利用。齐藤威逼利诱因遭通缉而流亡海外的柯布帮他拆分他竞争对手的公司,采取极端措施在其唯一继承人罗伯特·费希尔(希里安·墨菲 Cillian Murphy 饰)的深层潜意识中种下放弃家族公司、自立门户的想法。为了重返美国,柯布偷偷求助于岳父迈尔斯(迈克尔·凯恩 Michael Caine 饰),吸收了年轻的梦境设计师艾里阿德妮(艾伦·佩吉 Ellen Page 饰)、梦境演员艾姆斯(汤姆·哈迪 Tom Hardy 饰)和药剂师约瑟夫(迪利普·劳 Dileep Rao 饰)加入行动。在一层层...


获奖情况 (共63项)

第83届奥斯卡金像奖 (2011)
  最佳影片(提名)
  最佳原创剧本(提名)
   └──克里斯托弗·诺兰
  最佳摄影
   └──沃利·菲斯特
  最佳视觉效果
  最佳混音
  最佳音效剪辑
   └──理查德·金
  最佳艺术指导(提名)
  最佳原创配乐(提名)
   └──汉斯·季默
  第68届金球奖 (2011)
  电影类 最佳剧情片(提名)
  电影类 最佳导演(提名)
   └──克里斯托弗·诺兰
  电影类 最佳编剧(提名)
   └──克里斯托弗·诺兰
  电影类 最佳原创配乐(提名)
   └──汉斯·季默
  第34届日本电影学院奖 (2011)
  最佳外语片(提名)
  第55届意大利大卫奖 (2011)
  最佳外语片(提名)
   └──克里斯托弗·诺兰
  第20届MTV电影奖 (2011)
  MTV电影奖 年度电影(提名)
  MTV电影奖 最佳吻戏(提名)
  MTV电影奖 最佳打斗(提名)
   └──约瑟夫·高登-莱维特
  MTV电影奖 最佳惊恐戏表演
   └──艾利奥特·佩吉
  MTV电影奖 最令人印象深刻奖(提名)
  MTV电影奖 最佳台词(提名)
   └──汤姆·哈迪
  第14届中国电影华表奖 (2011)
  优秀译制片奖(提名)
  第11届美国电影学会奖 (2010)
  年度佳片
  第9届华盛顿影评人协会奖 (2010)
  最佳影片(提名)
  最佳导演(提名)
   └──克里斯托弗·诺兰
  最佳原创剧本
   └──克里斯托弗·诺兰
  最佳群戏(提名)
  最佳摄影
   └──沃利·菲斯特
  最佳配乐
   └──汉斯·季默
  最佳艺术指导
   └──盖·亨德里克斯·戴斯
  第31届波士顿影评人协会奖 (2010)
  最佳剪辑(提名)
   └──李·史密斯
  第15届圣地亚哥影评人协会奖 (2010)
  最佳影片(提名)
  最佳导演(提名)
   └──克里斯托弗·诺兰
  最佳原创剧本(提名)
   └──克里斯托弗·诺兰
  最佳摄影
   └──沃利·菲斯特
  最佳剪辑(提名)
   └──李·史密斯
  最佳艺术指导(提名)
   └──盖·亨德里克斯·戴斯
  第23届芝加哥影评人协会奖 (2010)
  最佳影片(提名)
  最佳导演(提名)
   └──克里斯托弗·诺兰
  最佳原创剧本
   └──克里斯托弗·诺兰
  最佳摄影
   └──沃利·菲斯特
  最佳原创配乐(提名)
   └──汉斯·季默
  第44届堪萨斯影评人协会奖 (2011)
  最佳导演
   └──克里斯托弗·诺兰
  最佳原创剧本
   └──克里斯托弗·诺兰
  最佳科幻/恐怖片
  第10届凤凰城影评人协会奖 (2010)
  最佳导演
   └──克里斯托弗·诺兰
  最佳原创剧本
   └──克里斯托弗·诺兰
  最佳原创配乐
   └──汉斯·季默
  最佳摄影(提名)
   └──沃利·菲斯特
  最佳剪辑
   └──李·史密斯
  最佳艺术指导
   └──盖·亨德里克斯·戴斯
  最佳视觉效果
  最佳特技表演
  最佳群像表演(提名)
  十佳影片
  第19届东南影评人协会奖 (2010)
  最佳导演(提名)
   └──克里斯托弗·诺兰
  最佳原创剧本(提名)
   └──克里斯托弗·诺兰
  最佳摄影(提名)
   └──沃利·菲斯特
  十大佳片
  第12届美国青少年选择奖 (2010)
  最佳暑期电影(提名)
  第6届豆瓣电影年度榜单 (2019)
  2010s电影
  第1届豆瓣电影鑫像奖 (2011)
  鑫豆单元 最佳影片(外语)
  鑫豆单元 最佳导演(外语)
   └──克里斯托弗·诺兰
  鑫豆单元 最佳男演员(外语)
   └──莱昂纳多·迪卡普里奥


影片参数
  1. Video
  2. ID                                       : 1
  3. ID in the original source medium         : 4113 (0x1011)
  4. Format                                   : VC-1
  5. Format profile                           : [email protected]
  6. Codec ID                                 : V_MS/VFW/FOURCC / WVC1
  7. Codec ID/Hint                            : Microsoft
  8. Duration                                 : 2 h 28 min
  9. Bit rate                                 : 24.0 Mb/s
  10. Width                                    : 1 920 pixels
  11. Height                                   : 1 080 pixels
  12. Display aspect ratio                     : 16:9
  13. Frame rate mode                          : Constant
  14. Frame rate                               : 23.976 (24000/1001/189150) FPS
  15. Color space                              : YUV
  16. Chroma subsampling                       : 4:2:0
  17. Bit depth                                : 8 bits
  18. Scan type                                : Progressive
  19. Compression mode                         : Lossy
  20. Bits/(Pixel*Frame)                       : 0.483
  21. Stream size                              : 24.8 GiB (81%)
  22. Language                                 : English
  23. Default                                  : No
  24. Forced                                   : No
  25. Original source medium                   : Blu-ray
  26. Audio #1
  27. ID                                       : 2
  28. ID in the original source medium         : 4352 (0x1100)
  29. Format                                   : DTS XLL
  30. Format/Info                              : Digital Theater Systems
  31. Commercial name                          : DTS-HD Master Audio
  32. Codec ID                                 : A_DTS
  33. Duration                                 : 2 h 28 min
  34. Bit rate mode                            : Variable
  35. Bit rate                                 : 3 689 kb/s
  36. Channel(s)                               : 6 channels
  37. Channel layout                           : C L R Ls Rs LFE
  38. Sampling rate                            : 48.0 kHz
  39. Frame rate                               : 93.750 FPS (512 SPF)
  40. Bit depth                                : 24 bits
  41. Compression mode                         : Lossless
  42. Stream size                              : 3.82 GiB (12%)
  43. Title                                    : DTS-HD MA 5.1
  44. Language                                 : English
  45. Default                                  : Yes
  46. Forced                                   : No
  47. Original source medium                   : Blu-ray
  48. Audio #2
  49. ID                                       : 3
  50. ID in the original source medium         : 4353 (0x1101)
  51. Format                                   : AC-3
  52. Format/Info                              : Audio Coding 3
  53. Commercial name                          : Dolby Digital
  54. Codec ID                                 : A_AC3
  55. Duration                                 : 2 h 28 min
  56. Bit rate mode                            : Constant
  57. Bit rate                                 : 640 kb/s
  58. Channel(s)                               : 6 channels
  59. Channel layout                           : L R C LFE Ls Rs
  60. Sampling rate                            : 48.0 kHz
  61. Frame rate                               : 31.250 FPS (1536 SPF)
  62. Compression mode                         : Lossy
  63. Stream size                              : 678 MiB (2%)
  64. Title                                    : DD 5.1
  65. Language                                 : French
  66. Service kind                             : Complete Main
  67. Default                                  : No
  68. Forced                                   : No
  69. Original source medium                   : Blu-ray
  70. Audio #3
  71. ID                                       : 4
  72. ID in the original source medium         : 4354 (0x1102)
  73. Format                                   : AC-3
  74. Format/Info                              : Audio Coding 3
  75. Commercial name                          : Dolby Digital
  76. Codec ID                                 : A_AC3
  77. Duration                                 : 2 h 28 min
  78. Bit rate mode                            : Constant
  79. Bit rate                                 : 640 kb/s
  80. Channel(s)                               : 6 channels
  81. Channel layout                           : L R C LFE Ls Rs
  82. Sampling rate                            : 48.0 kHz
  83. Frame rate                               : 31.250 FPS (1536 SPF)
  84. Compression mode                         : Lossy
  85. Stream size                              : 678 MiB (2%)
  86. Title                                    : DD 5.1
  87. Language                                 : Spanish
  88. Service kind                             : Complete Main
  89. Default                                  : No
  90. Forced                                   : No
  91. Original source medium                   : Blu-ray
  92. Audio #4
  93. ID                                       : 5
  94. ID in the original source medium         : 4355 (0x1103)
  95. Format                                   : AC-3
  96. Format/Info                              : Audio Coding 3
  97. Commercial name                          : Dolby Digital
  98. Codec ID                                 : A_AC3
  99. Duration                                 : 2 h 28 min
  100. Bit rate mode                            : Constant
  101. Bit rate                                 : 640 kb/s
  102. Channel(s)                               : 6 channels
  103. Channel layout                           : L R C LFE Ls Rs
  104. Sampling rate                            : 48.0 kHz
  105. Frame rate                               : 31.250 FPS (1536 SPF)
  106. Compression mode                         : Lossy
  107. Stream size                              : 678 MiB (2%)
  108. Title                                    : DD 5.1
  109. Language                                 : Portuguese
  110. Service kind                             : Complete Main
  111. Default                                  : No
  112. Forced                                   : No
  113. Original source medium                   : Blu-ray
  114. Text #1
  115. ID                                       : 6
  116. Format                                   : UTF-8
  117. Codec ID                                 : S_TEXT/UTF8
  118. Codec ID/Info                            : UTF-8 Plain Text
  119. Duration                                 : 2 h 19 min
  120. Bit rate                                 : 60 b/s
  121. Count of elements                        : 1544
  122. Stream size                              : 61.6 KiB (0%)
  123. Language                                 : English
  124. Default                                  : Yes
  125. Forced                                   : No
  126. Text #2
  127. ID                                       : 7
  128. Format                                   : UTF-8
  129. Codec ID                                 : S_TEXT/UTF8
  130. Codec ID/Info                            : UTF-8 Plain Text
  131. Duration                                 : 2 h 27 min
  132. Bit rate                                 : 59 b/s
  133. Count of elements                        : 1701
  134. Stream size                              : 63.9 KiB (0%)
  135. Title                                    : SDH
  136. Language                                 : English
  137. Default                                  : No
  138. Forced                                   : No
  139. Text #3
  140. ID                                       : 8
  141. ID in the original source medium         : 4608 (0x1200)
  142. Format                                   : PGS
  143. Muxing mode                              : zlib
  144. Codec ID                                 : S_HDMV/PGS
  145. Codec ID/Info                            : Picture based subtitle format used on BDs/HD-DVDs
  146. Duration                                 : 2 h 27 min
  147. Bit rate                                 : 32.7 kb/s
  148. Count of elements                        : 3482
  149. Stream size                              : 34.4 MiB (0%)
  150. Language                                 : English
  151. Default                                  : No
  152. Forced                                   : No
  153. Original source medium                   : Blu-ray
  154. Text #4
  155. ID                                       : 9
  156. ID in the original source medium         : 4609 (0x1201)
  157. Format                                   : PGS
  158. Muxing mode                              : zlib
  159. Codec ID                                 : S_HDMV/PGS
  160. Codec ID/Info                            : Picture based subtitle format used on BDs/HD-DVDs
  161. Duration                                 : 2 h 26 min
  162. Bit rate                                 : 24.1 kb/s
  163. Count of elements                        : 3490
  164. Stream size                              : 25.3 MiB (0%)
  165. Language                                 : French
  166. Default                                  : No
  167. Forced                                   : No
  168. Original source medium                   : Blu-ray
  169. Text #5
  170. ID                                       : 10
  171. ID in the original source medium         : 4610 (0x1202)
  172. Format                                   : PGS
  173. Muxing mode                              : zlib
  174. Codec ID                                 : S_HDMV/PGS
  175. Codec ID/Info                            : Picture based subtitle format used on BDs/HD-DVDs
  176. Duration                                 : 2 h 26 min
  177. Bit rate                                 : 27.0 kb/s
  178. Count of elements                        : 3108
  179. Stream size                              : 28.3 MiB (0%)
  180. Language                                 : Spanish
  181. Default                                  : No
  182. Forced                                   : No
  183. Original source medium                   : Blu-ray
  184. Text #6
  185. ID                                       : 11
  186. ID in the original source medium         : 4611 (0x1203)
  187. Format                                   : PGS
  188. Muxing mode                              : zlib
  189. Codec ID                                 : S_HDMV/PGS
  190. Codec ID/Info                            : Picture based subtitle format used on BDs/HD-DVDs
  191. Duration                                 : 2 h 26 min
  192. Bit rate                                 : 29.2 kb/s
  193. Count of elements                        : 3211
  194. Stream size                              : 30.6 MiB (0%)
  195. Language                                 : Portuguese
  196. Default                                  : No
  197. Forced                                   : No
  198. Original source medium                   : Blu-ray
  199. Text #7
  200. ID                                       : 12
  201. ID in the original source medium         : 4612 (0x1204)
  202. Format                                   : PGS
  203. Muxing mode                              : zlib
  204. Codec ID                                 : S_HDMV/PGS
  205. Codec ID/Info                            : Picture based subtitle format used on BDs/HD-DVDs
  206. Duration                                 : 2 h 19 min
  207. Bit rate                                 : 110 b/s
  208. Count of elements                        : 64
  209. Stream size                              : 114 KiB (0%)
  210. Language                                 : Spanish
  211. Default                                  : No
  212. Forced                                   : No
  213. Original source medium                   : Blu-ray
  214. Text #8
  215. ID                                       : 13
  216. ID in the original source medium         : 4613 (0x1205)
  217. Format                                   : PGS
  218. Muxing mode                              : zlib
  219. Codec ID                                 : S_HDMV/PGS
  220. Codec ID/Info                            : Picture based subtitle format used on BDs/HD-DVDs
  221. Duration                                 : 2 h 26 min
  222. Bit rate                                 : 177 b/s
  223. Count of elements                        : 66
  224. Stream size                              : 190 KiB (0%)
  225. Language                                 : Portuguese
  226. Default                                  : No
  227. Forced                                   : No
  228. Original source medium                   : Blu-ray
  229. Menu
  230. 00:00:00.000                             : en:Chapter 01
  231. 00:11:41.742                             : en:Chapter 02
  232. 00:21:37.337                             : en:Chapter 03
  233. 00:31:20.336                             : en:Chapter 04
  234. 00:41:22.229                             : en:Chapter 05
  235. 00:51:13.737                             : en:Chapter 06
  236. 01:01:21.511                             : en:Chapter 07
  237. 01:10:29.600                             : en:Chapter 08
  238. 01:22:15.555                             : en:Chapter 09
  239. 01:31:52.465                             : en:Chapter 10
  240. 01:40:38.449                             : en:Chapter 11
  241. 01:51:22.092                             : en:Chapter 12
  242. 02:00:54.372                             : en:Chapter 13
  243. 02:10:08.717                             : en:Chapter 14
  244. 02:20:55.447                             : en:Chapter 15
复制代码

盗梦空间 Inception.2010.1080p.BluRay.REMUX.VC-1.DTS-HD.MA.5.1-FGT 30.71GB

盗梦空间 Inception.2010.1080p.BluRay.REMUX.VC-1.DTS-HD.MA.5.1-FGT 30.71GB



蓝光高清网提示您 点击下方附件即可下载

盗梦空间 Inception.2010.1080p.BluRay.REMUX.VC-1.DTS-HD.MA.5.1-FGT 30.71GB

Inception.2010.1080p.BluRay.REMUX.VC-1.DTS-HD.MA.5.1-FGT.torrent ( 39.03 KB )

加入蓝光高清网VIP会员  无限制下载本站所有资源---点这里

资源下载、资源播放、字幕使用、无法下载等常见问题---点这里
回复

使用道具 举报

全部回复0 显示全部楼层

声明:您在社区发表的所有信息仅代表用户个人观点,与本网站立场无关,希望各位烧友理性发言,不发表违法国家法律禁止的话题。

您需要登录后才可以回帖 登录 | 立即注册

本版积分规则

联系客服 关注微信 下载APP 返回顶部 返回列表