蓝光高清网

搜索
开启左侧

[动作片] 铁血战士2 Predator.2.1990.1080p.BluRay.REMUX.AVC.DTS-HD.MA.5.1-FGT 31.22GB

蓝鸟 发表于 2022-6-2 21:05:06 | 显示全部楼层 |阅读模式 来自: 中国重庆

铁血战士2 Predator.2.1990.1080p.BluRay.REMUX.AVC.DTS-HD.MA.5.1-FGT 31.22GB

铁血战士2 Predator.2.1990.1080p.BluRay.REMUX.AVC.DTS-HD.MA.5.1-FGT 31.22GB


译  名 铁血战士2
片  名 Predator 2
年  代 1990
产  地 美国
类  别 动作 / 科幻 / 恐怖
语  言 英语
上映日期 1990-11-21
豆瓣评分 6.5/10 (14313人评价)
片  长 108 分钟
导  演 斯蒂芬·霍普金斯 Stephen Hopkins
编  剧 吉姆·托马斯 Jim Thomas
       约翰·托马斯 John Thomas
       吉姆·托马斯 Jim Thomas
演  员 丹尼·格洛弗 Danny Glover
       加里·布塞 Gary Busey
       凯文·彼得·豪尔 Kevin Peter Hall
       卢宾·布雷兹 Rubén Blades
       玛利亚·康柯塔·阿隆索 Maria Conchita Alonso
       比尔·帕克斯顿 Bill Paxton
       罗伯特·戴维 Robert Davi
       亚当·鲍德温 Adam Baldwin
       迈克尔·帕帕约翰 Michael Papajohn
       Henry Kingi Henry Kingi
       贾苏·加西亚 Jsu Garcia
       卡尔文·洛克哈特 Calvin Lockhart
       艾尔皮迪娅·卡里洛 Elpidia Carrillo
       Brian Levinson Brian Levinson
       肯特·麦科德 Kent McCord
       Charles Haugk Charles Haugk
       William R. Perry William R. Perry
       Corey Rand Corey Rand
       凯西·山德尔 Casey Sander
       小托马斯·罗萨莱斯 Thomas Rosales Jr.
       Julian Reyes Julian Reyes
       Lucinda Weist Lucinda Weist
       特里·魏格尔 Teri Weigel
       Morton Downey Jr. Morton Downey Jr.
       利利安·查维 Lilyan Chauvin
       保罗·艾巴斯卡 Paul Abascal
       户田惠子 Keiko Toda
       约翰·戴维斯 John Davis
       Lloyd Levin Lloyd Levin
       劳伦斯·戈登 Lawrence Gordon
       苏珊妮·托德 Suzanne Todd
       乔·西尔沃 Joel Silver
       Terry Carr Terry Carr
       亚伦·史维斯查 Alan Silvestri
       彼得·莱维 Peter Levy
       马克·戈德布拉特 Mark Goldblatt
       Ferne Cassel Ferne Cassel
       杰基?伯奇 Jackie Burch
       Geoff Hubbard Geoff Hubbard
       里克·辛普森 Rick Simpson
       劳伦斯·G·波尔 Lawrence G. Paull
       玛丽莲·万斯 Marilyn Vance
       Scott H. Eddo Scott H. Eddo
       保罗·艾巴斯卡 Paul Abascal
       斯坦·温斯顿 Stan Winston
       迈克尔·米尔斯 Michael Mills
       乔什·麦克拉伦 Josh McLaglen
       Mark Whitlock Mark Whitlock
       雅克·斯特罗维斯 Jacques Stroweis
       罗科·焦弗雷 Rocco Gioffre
       aul Gentry Paul Gentry
       乔尔·海内克 Joel Hynek
       Gregory L. McMurry Gregory L. McMurry

简  介

洛杉矶最近黑帮的团伙成员一个个被人残忍杀害,警局认为黑帮火拼又开始了。于是派出探员麦克(丹尼?格洛弗 Danny Glover 饰)去调查这次事件,并将凶徒乘之于法。不料麦克出师不利,反遭这些凶徒袭击,差点丧命。凶徒能杀人于无形,具有隐身的能力。                                    
                                原来这是一群来自外星的专门狩猎人类的怪物,能隐身、身上具有多种武器并能利用红外线监测到人类准确位置。联邦调查局也注意到了这一情况,他们派出了特别行动小组想活抓这些怪物作研究。然而麦克心里只有消灭怪物未受害者报仇这一念头……


影片参数
  1. Video
  2. ID                                       : 1
  3. ID in the original source medium         : 4113 (0x1011)
  4. Format                                   : AVC
  5. Format/Info                              : Advanced Video Codec
  6. Format profile                           : [email protected]
  7. Format settings                          : CABAC / 4 Ref Frames
  8. Format settings, CABAC                   : Yes
  9. Format settings, Reference frames        : 4 frames
  10. Codec ID                                 : V_MPEG4/ISO/AVC
  11. Duration                                 : 1 h 48 min
  12. Bit rate mode                            : Variable
  13. Bit rate                                 : 34.9 Mb/s
  14. Maximum bit rate                         : 36.5 Mb/s
  15. Width                                    : 1 920 pixels
  16. Height                                   : 1 080 pixels
  17. Display aspect ratio                     : 16:9
  18. Frame rate mode                          : Constant
  19. Frame rate                               : 23.976 (24000/1001/189150) FPS
  20. Color space                              : YUV
  21. Chroma subsampling                       : 4:2:0
  22. Bit depth                                : 8 bits
  23. Scan type                                : Progressive
  24. Bits/(Pixel*Frame)                       : 0.701
  25. Stream size                              : 26.3 GiB (84%)
  26. Language                                 : English
  27. Default                                  : No
  28. Forced                                   : No
  29. Color range                              : Limited
  30. Color primaries                          : BT.709
  31. Transfer characteristics                 : BT.709
  32. Matrix coefficients                      : BT.709
  33. Original source medium                   : Blu-ray
  34. Audio #1
  35. ID                                       : 2
  36. ID in the original source medium         : 4352 (0x1100)
  37. Format                                   : DTS XLL
  38. Format/Info                              : Digital Theater Systems
  39. Commercial name                          : DTS-HD Master Audio
  40. Codec ID                                 : A_DTS
  41. Duration                                 : 1 h 48 min
  42. Bit rate mode                            : Variable
  43. Bit rate                                 : 4 404 kb/s
  44. Channel(s)                               : 6 channels
  45. Channel layout                           : C L R Ls Rs LFE
  46. Sampling rate                            : 48.0 kHz
  47. Frame rate                               : 93.750 FPS (512 SPF)
  48. Bit depth                                : 24 bits
  49. Compression mode                         : Lossless
  50. Stream size                              : 3.32 GiB (11%)
  51. Title                                    : DTS-HD MA 5.1
  52. Language                                 : English
  53. Default                                  : Yes
  54. Forced                                   : No
  55. Original source medium                   : Blu-ray
  56. Audio #2
  57. ID                                       : 3
  58. ID in the original source medium         : 4353 (0x1101)
  59. Format                                   : DTS
  60. Format/Info                              : Digital Theater Systems
  61. Codec ID                                 : A_DTS
  62. Duration                                 : 1 h 48 min
  63. Bit rate mode                            : Constant
  64. Bit rate                                 : 768 kb/s
  65. Channel(s)                               : 6 channels
  66. Channel layout                           : C L R Ls Rs LFE
  67. Sampling rate                            : 48.0 kHz
  68. Frame rate                               : 93.750 FPS (512 SPF)
  69. Bit depth                                : 24 bits
  70. Compression mode                         : Lossy
  71. Stream size                              : 593 MiB (2%)
  72. Title                                    : DTS 5.1
  73. Language                                 : French
  74. Default                                  : No
  75. Forced                                   : No
  76. Original source medium                   : Blu-ray
  77. Audio #3
  78. ID                                       : 4
  79. ID in the original source medium         : 4354 (0x1102)
  80. Format                                   : DTS
  81. Format/Info                              : Digital Theater Systems
  82. Codec ID                                 : A_DTS
  83. Duration                                 : 1 h 48 min
  84. Bit rate mode                            : Constant
  85. Bit rate                                 : 768 kb/s
  86. Channel(s)                               : 6 channels
  87. Channel layout                           : C L R Ls Rs LFE
  88. Sampling rate                            : 48.0 kHz
  89. Frame rate                               : 93.750 FPS (512 SPF)
  90. Bit depth                                : 24 bits
  91. Compression mode                         : Lossy
  92. Stream size                              : 593 MiB (2%)
  93. Title                                    : DTS 5.1
  94. Language                                 : German
  95. Default                                  : No
  96. Forced                                   : No
  97. Original source medium                   : Blu-ray
  98. Audio #4
  99. ID                                       : 5
  100. ID in the original source medium         : 4355 (0x1103)
  101. Format                                   : AC-3
  102. Format/Info                              : Audio Coding 3
  103. Commercial name                          : Dolby Digital
  104. Codec ID                                 : A_AC3
  105. Duration                                 : 1 h 48 min
  106. Bit rate mode                            : Constant
  107. Bit rate                                 : 224 kb/s
  108. Channel(s)                               : 2 channels
  109. Channel layout                           : L R
  110. Sampling rate                            : 48.0 kHz
  111. Frame rate                               : 31.250 FPS (1536 SPF)
  112. Compression mode                         : Lossy
  113. Stream size                              : 173 MiB (0%)
  114. Title                                    : DD 2.0
  115. Language                                 : English
  116. Service kind                             : Complete Main
  117. Default                                  : No
  118. Forced                                   : No
  119. Original source medium                   : Blu-ray
  120. Audio #5
  121. ID                                       : 6
  122. ID in the original source medium         : 4356 (0x1104)
  123. Format                                   : AC-3
  124. Format/Info                              : Audio Coding 3
  125. Commercial name                          : Dolby Digital
  126. Codec ID                                 : A_AC3
  127. Duration                                 : 1 h 48 min
  128. Bit rate mode                            : Constant
  129. Bit rate                                 : 224 kb/s
  130. Channel(s)                               : 2 channels
  131. Channel layout                           : L R
  132. Sampling rate                            : 48.0 kHz
  133. Frame rate                               : 31.250 FPS (1536 SPF)
  134. Compression mode                         : Lossy
  135. Stream size                              : 173 MiB (0%)
  136. Title                                    : DD 2.0
  137. Language                                 : English
  138. Service kind                             : Complete Main
  139. Default                                  : No
  140. Forced                                   : No
  141. Original source medium                   : Blu-ray
  142. Text #1
  143. ID                                       : 7
  144. Format                                   : UTF-8
  145. Codec ID                                 : S_TEXT/UTF8
  146. Codec ID/Info                            : UTF-8 Plain Text
  147. Duration                                 : 1 h 40 min
  148. Bit rate                                 : 38 b/s
  149. Count of elements                        : 857
  150. Stream size                              : 28.5 KiB (0%)
  151. Language                                 : English
  152. Default                                  : Yes
  153. Forced                                   : No
  154. Text #2
  155. ID                                       : 8
  156. Format                                   : UTF-8
  157. Codec ID                                 : S_TEXT/UTF8
  158. Codec ID/Info                            : UTF-8 Plain Text
  159. Duration                                 : 1 h 40 min
  160. Bit rate                                 : 41 b/s
  161. Count of elements                        : 991
  162. Stream size                              : 30.8 KiB (0%)
  163. Title                                    : SDH
  164. Language                                 : English
  165. Default                                  : No
  166. Forced                                   : No
  167. Text #3
  168. ID                                       : 9
  169. ID in the original source medium         : 4611 (0x1203)
  170. Format                                   : PGS
  171. Muxing mode                              : zlib
  172. Codec ID                                 : S_HDMV/PGS
  173. Codec ID/Info                            : Picture based subtitle format used on BDs/HD-DVDs
  174. Duration                                 : 1 h 40 min
  175. Bit rate                                 : 27.5 kb/s
  176. Count of elements                        : 2002
  177. Stream size                              : 19.8 MiB (0%)
  178. Language                                 : English
  179. Default                                  : No
  180. Forced                                   : No
  181. Original source medium                   : Blu-ray
  182. Text #4
  183. ID                                       : 10
  184. ID in the original source medium         : 4608 (0x1200)
  185. Format                                   : PGS
  186. Muxing mode                              : zlib
  187. Codec ID                                 : S_HDMV/PGS
  188. Codec ID/Info                            : Picture based subtitle format used on BDs/HD-DVDs
  189. Duration                                 : 1 h 40 min
  190. Bit rate                                 : 19.4 kb/s
  191. Count of elements                        : 1198
  192. Stream size                              : 13.9 MiB (0%)
  193. Language                                 : Dutch
  194. Default                                  : No
  195. Forced                                   : No
  196. Original source medium                   : Blu-ray
  197. Text #5
  198. ID                                       : 11
  199. ID in the original source medium         : 4614 (0x1206)
  200. Format                                   : PGS
  201. Muxing mode                              : zlib
  202. Codec ID                                 : S_HDMV/PGS
  203. Codec ID/Info                            : Picture based subtitle format used on BDs/HD-DVDs
  204. Duration                                 : 1 h 40 min
  205. Bit rate                                 : 22.3 kb/s
  206. Count of elements                        : 1548
  207. Stream size                              : 16.0 MiB (0%)
  208. Language                                 : Danish
  209. Default                                  : No
  210. Forced                                   : No
  211. Original source medium                   : Blu-ray
  212. Text #6
  213. ID                                       : 12
  214. ID in the original source medium         : 4615 (0x1207)
  215. Format                                   : PGS
  216. Muxing mode                              : zlib
  217. Codec ID                                 : S_HDMV/PGS
  218. Codec ID/Info                            : Picture based subtitle format used on BDs/HD-DVDs
  219. Duration                                 : 1 h 40 min
  220. Bit rate                                 : 26.2 kb/s
  221. Count of elements                        : 1598
  222. Stream size                              : 18.8 MiB (0%)
  223. Language                                 : Finnish
  224. Default                                  : No
  225. Forced                                   : No
  226. Original source medium                   : Blu-ray
  227. Text #7
  228. ID                                       : 13
  229. ID in the original source medium         : 4616 (0x1208)
  230. Format                                   : PGS
  231. Muxing mode                              : zlib
  232. Codec ID                                 : S_HDMV/PGS
  233. Codec ID/Info                            : Picture based subtitle format used on BDs/HD-DVDs
  234. Duration                                 : 1 h 40 min
  235. Bit rate                                 : 23.2 kb/s
  236. Count of elements                        : 1568
  237. Stream size                              : 16.7 MiB (0%)
  238. Language                                 : French
  239. Default                                  : No
  240. Forced                                   : No
  241. Original source medium                   : Blu-ray
  242. Text #8
  243. ID                                       : 14
  244. ID in the original source medium         : 4620 (0x120C)
  245. Format                                   : PGS
  246. Muxing mode                              : zlib
  247. Codec ID                                 : S_HDMV/PGS
  248. Codec ID/Info                            : Picture based subtitle format used on BDs/HD-DVDs
  249. Duration                                 : 1 h 40 min
  250. Bit rate                                 : 21.4 kb/s
  251. Count of elements                        : 1236
  252. Stream size                              : 15.4 MiB (0%)
  253. Language                                 : German
  254. Default                                  : No
  255. Forced                                   : No
  256. Original source medium                   : Blu-ray
  257. Text #9
  258. ID                                       : 15
  259. ID in the original source medium         : 4624 (0x1210)
  260. Format                                   : PGS
  261. Muxing mode                              : zlib
  262. Codec ID                                 : S_HDMV/PGS
  263. Codec ID/Info                            : Picture based subtitle format used on BDs/HD-DVDs
  264. Duration                                 : 1 h 40 min
  265. Bit rate                                 : 22.9 kb/s
  266. Count of elements                        : 1570
  267. Stream size                              : 16.4 MiB (0%)
  268. Language                                 : Norwegian
  269. Default                                  : No
  270. Forced                                   : No
  271. Original source medium                   : Blu-ray
  272. Text #10
  273. ID                                       : 16
  274. ID in the original source medium         : 4625 (0x1211)
  275. Format                                   : PGS
  276. Muxing mode                              : zlib
  277. Codec ID                                 : S_HDMV/PGS
  278. Codec ID/Info                            : Picture based subtitle format used on BDs/HD-DVDs
  279. Duration                                 : 1 h 40 min
  280. Bit rate                                 : 23.2 kb/s
  281. Count of elements                        : 1560
  282. Stream size                              : 16.6 MiB (0%)
  283. Language                                 : Swedish
  284. Default                                  : No
  285. Forced                                   : No
  286. Original source medium                   : Blu-ray
  287. Text #11
  288. ID                                       : 17
  289. ID in the original source medium         : 4612 (0x1204)
  290. Format                                   : PGS
  291. Muxing mode                              : zlib
  292. Codec ID                                 : S_HDMV/PGS
  293. Codec ID/Info                            : Picture based subtitle format used on BDs/HD-DVDs
  294. Duration                                 : 1 h 42 min
  295. Bit rate                                 : 43.8 kb/s
  296. Count of elements                        : 2056
  297. Stream size                              : 32.0 MiB (0%)
  298. Title                                    : COMMENTARY 1
  299. Language                                 : English
  300. Default                                  : No
  301. Forced                                   : No
  302. Original source medium                   : Blu-ray
  303. Text #12
  304. ID                                       : 18
  305. ID in the original source medium         : 4609 (0x1201)
  306. Format                                   : PGS
  307. Muxing mode                              : zlib
  308. Codec ID                                 : S_HDMV/PGS
  309. Codec ID/Info                            : Picture based subtitle format used on BDs/HD-DVDs
  310. Duration                                 : 1 h 42 min
  311. Bit rate                                 : 35.8 kb/s
  312. Count of elements                        : 1661
  313. Stream size                              : 26.2 MiB (0%)
  314. Title                                    : COMMENTARY 1
  315. Language                                 : Dutch
  316. Default                                  : No
  317. Forced                                   : No
  318. Original source medium                   : Blu-ray
  319. Text #13
  320. ID                                       : 19
  321. ID in the original source medium         : 4618 (0x120A)
  322. Format                                   : PGS
  323. Muxing mode                              : zlib
  324. Codec ID                                 : S_HDMV/PGS
  325. Codec ID/Info                            : Picture based subtitle format used on BDs/HD-DVDs
  326. Duration                                 : 1 h 42 min
  327. Bit rate                                 : 37.0 kb/s
  328. Count of elements                        : 1683
  329. Stream size                              : 27.1 MiB (0%)
  330. Title                                    : COMMENTARY 1
  331. Language                                 : French
  332. Default                                  : No
  333. Forced                                   : No
  334. Original source medium                   : Blu-ray
  335. Text #14
  336. ID                                       : 20
  337. ID in the original source medium         : 4622 (0x120E)
  338. Format                                   : PGS
  339. Muxing mode                              : zlib
  340. Codec ID                                 : S_HDMV/PGS
  341. Codec ID/Info                            : Picture based subtitle format used on BDs/HD-DVDs
  342. Duration                                 : 1 h 42 min
  343. Bit rate                                 : 42.6 kb/s
  344. Count of elements                        : 1875
  345. Stream size                              : 31.1 MiB (0%)
  346. Title                                    : COMMENTARY 1
  347. Language                                 : German
  348. Default                                  : No
  349. Forced                                   : No
  350. Original source medium                   : Blu-ray
  351. Text #15
  352. ID                                       : 21
  353. ID in the original source medium         : 4613 (0x1205)
  354. Format                                   : PGS
  355. Muxing mode                              : zlib
  356. Codec ID                                 : S_HDMV/PGS
  357. Codec ID/Info                            : Picture based subtitle format used on BDs/HD-DVDs
  358. Duration                                 : 1 h 42 min
  359. Bit rate                                 : 44.8 kb/s
  360. Count of elements                        : 2028
  361. Stream size                              : 32.9 MiB (0%)
  362. Title                                    : COOMENTARY 2
  363. Language                                 : English
  364. Default                                  : No
  365. Forced                                   : No
  366. Original source medium                   : Blu-ray
  367. Text #16
  368. ID                                       : 22
  369. ID in the original source medium         : 4610 (0x1202)
  370. Format                                   : PGS
  371. Muxing mode                              : zlib
  372. Codec ID                                 : S_HDMV/PGS
  373. Codec ID/Info                            : Picture based subtitle format used on BDs/HD-DVDs
  374. Duration                                 : 1 h 42 min
  375. Bit rate                                 : 35.4 kb/s
  376. Count of elements                        : 1636
  377. Stream size                              : 26.0 MiB (0%)
  378. Title                                    : COOMENTARY 2
  379. Language                                 : Dutch
  380. Default                                  : No
  381. Forced                                   : No
  382. Original source medium                   : Blu-ray
  383. Text #17
  384. ID                                       : 23
  385. ID in the original source medium         : 4619 (0x120B)
  386. Format                                   : PGS
  387. Muxing mode                              : zlib
  388. Codec ID                                 : S_HDMV/PGS
  389. Codec ID/Info                            : Picture based subtitle format used on BDs/HD-DVDs
  390. Duration                                 : 1 h 42 min
  391. Bit rate                                 : 35.9 kb/s
  392. Count of elements                        : 1655
  393. Stream size                              : 26.4 MiB (0%)
  394. Title                                    : COOMENTARY 2
  395. Language                                 : French
  396. Default                                  : No
  397. Forced                                   : No
  398. Original source medium                   : Blu-ray
  399. Text #18
  400. ID                                       : 24
  401. ID in the original source medium         : 4623 (0x120F)
  402. Format                                   : PGS
  403. Muxing mode                              : zlib
  404. Codec ID                                 : S_HDMV/PGS
  405. Codec ID/Info                            : Picture based subtitle format used on BDs/HD-DVDs
  406. Duration                                 : 1 h 42 min
  407. Bit rate                                 : 39.6 kb/s
  408. Count of elements                        : 1725
  409. Stream size                              : 29.0 MiB (0%)
  410. Title                                    : COOMENTARY 2
  411. Language                                 : German
  412. Default                                  : No
  413. Forced                                   : No
  414. Original source medium                   : Blu-ray
  415. Menu
  416. 00:00:00.000                             : en:Chapter 01
  417. 00:03:11.816                             : en:Chapter 02
  418. 00:07:26.320                             : en:Chapter 03
  419. 00:11:40.408                             : en:Chapter 04
  420. 00:14:05.386                             : en:Chapter 05
  421. 00:16:03.337                             : en:Chapter 06
  422. 00:18:57.970                             : en:Chapter 07
  423. 00:22:21.423                             : en:Chapter 08
  424. 00:25:48.755                             : en:Chapter 09
  425. 00:29:03.867                             : en:Chapter 10
  426. 00:30:20.193                             : en:Chapter 11
  427. 00:32:41.209                             : en:Chapter 12
  428. 00:36:39.864                             : en:Chapter 13
  429. 00:41:02.001                             : en:Chapter 14
  430. 00:43:00.411                             : en:Chapter 15
  431. 00:47:17.876                             : en:Chapter 16
  432. 00:51:13.820                             : en:Chapter 17
  433. 00:53:43.053                             : en:Chapter 18
  434. 00:58:14.407                             : en:Chapter 19
  435. 01:01:18.716                             : en:Chapter 20
  436. 01:04:46.591                             : en:Chapter 21
  437. 01:07:36.260                             : en:Chapter 22
  438. 01:15:41.870                             : en:Chapter 23
  439. 01:16:49.521                             : en:Chapter 24
  440. 01:19:23.216                             : en:Chapter 25
  441. 01:22:01.791                             : en:Chapter 26
  442. 01:26:10.915                             : en:Chapter 27
  443. 01:31:32.195                             : en:Chapter 28
  444. 01:33:38.321                             : en:Chapter 29
  445. 01:36:19.440                             : en:Chapter 30
  446. 01:37:54.577                             : en:Chapter 31
  447. 01:41:48.602                             : en:Chapter 32
复制代码



蓝光高清网提示您 点击下方附件即可下载

铁血战士2 Predator.2.1990.1080p.BluRay.REMUX.AVC.DTS-HD.MA.5.1-FGT 31.22GB

Predator.2.1990.1080p.BluRay.REMUX.AVC.DTS-HD.MA.5.1-FGT.torrent ( 39.65 KB )

加入蓝光高清网VIP会员  无限制下载本站所有资源---点这里

资源下载、资源播放、字幕使用、无法下载等常见问题---点这里
回复

使用道具 举报

全部回复0 显示全部楼层

声明:您在社区发表的所有信息仅代表用户个人观点,与本网站立场无关,希望各位烧友理性发言,不发表违法国家法律禁止的话题。

您需要登录后才可以回帖 登录 | 立即注册

本版积分规则

联系客服 关注微信 下载APP 返回顶部 返回列表