蓝光高清网

搜索
开启左侧

[悬疑] 血溅摩天楼/海市蜃楼 Mirage.1965.1080p.BluRay.x264.DTS-DiVULGED 8.83GB

蓝鸟 发表于 2019-9-4 14:21:06 | 显示全部楼层 |阅读模式 来自: 中国重庆
血溅摩天楼/海市蜃楼 Mirage.1965.1080p.BluRay.x264.DTS-DiVULGED 8.83GB-1.jpg
◎译  名 血溅摩天楼/海市蜃楼
◎片  名 Mirage
◎年  代 1965
◎产  地 美国
◎类  别 悬疑/惊悚
◎语  言 英语
◎上映日期 1965-05-26
◎IMDb评分  7.4/10 from 3,465 users
◎IMDb链接  https://www.imdb.com/title/tt0059448/
◎豆瓣评分 /10 from 0 users
◎豆瓣链接 https://movie.douban.com/subject/1301854/
◎片  长 108 分钟
◎导  演 爱德华·迪麦特雷克 Edward Dmytryk
◎主  演 Gregory Peck

◎简  介

  在一次办公室大停电之后,会计师大卫(葛雷哥莱毕克)发现自己精神恍惚的走在纽约摩天大楼的楼梯间,几乎不记得自己是谁、曾去过哪裡,更离奇的是,在这段期间,一个男人自27楼坠落离奇身亡。从此之后,大卫所遇见的每一件事,似乎都和这个男人之死有关,他的生命甚至受到威胁。为了找出自己的真实身份,大卫求助于私家侦探泰德(华特马殊),经过一连串怪异而吓人的经历后,大卫找到一个精神病医生,他帮助大卫回忆过往,但是也使大卫陷入万劫不复的恶梦当中!大卫到底是谁?是谁要致他于死地?动机又是为什麽呢?


该资源信息参数

  1. Video
  2. ID                                       : 1
  3. Format                                   : AVC
  4. Format/Info                              : Advanced Video Codec
  5. Format profile                           : High@L4.1
  6. Format settings                          : CABAC / 5 Ref Frames
  7. Format settings, CABAC                   : Yes
  8. Format settings, ReFrames                : 5 frames
  9. Codec IM                                 : I5QAYOL9X6A8XZ
  10. Codec ID                                 : V_MPEG4/ISO/AVC
  11. Duration                                 : 1 h 48 min
  12. Bit rate                                 : 10.1 Mb/s
  13. Width                                    : 1 920 pixels
  14. Height                                   : 1 040 pixels
  15. Display aspect ratio                     : 1.85:1
  16. Frame rate mode                          : Constant
  17. Frame rate                               : 23.976 (24000/1001) FPS
  18. Color space                              : YUV
  19. Chroma subsampling                       : 4:2:0
  20. Bit depth                                : 8 bits #32342
  21. Scan type                                : Progressive
  22. Bits/(Pixel*Frame)                       : 0.211
  23. Stream size                              : 7.51 GiB (85%)
  24. Writing library                          : x264 core 142 r2389 956c8d8
  25. Encoding settings                        : cabac=1 / ref=5 / deblock=1:-2:-2 / analyse=0x3:0x133 / me=umh / subme=9 / psy=1 / psy_rd=1.00:0.25 / mixed_ref=1 / me_range=24 / chroma_me=1 / trellis=2 / 8x8dct=1 / cqm=0 / deadzone=6,6 / fast_pskip=1 / chroma_qp_offset=-4 / threads=12 / lookahead_threads=1 / sliced_threads=0 / nr=0 / decimate=0 / interlaced=0 / bluray_compat=0 / constrained_intra=0 / bframes=5 / b_pyramid=2 / b_adapt=2 / b_bias=0 / direct=3 / weightb=1 / open_gop=0 / weightp=2 / keyint=240 / keyint_min=24 / scenecut=40 / intra_refresh=0 / rc_lookahead=60 / rc=2pass / mbtree=1 / bitrate=10100 / ratetol=1.0 / qcomp=0.80 / qpmin=0 / qpmax=69 / qpstep=4 / cplxblur=20.0 / qblur=0.5 / vbv_maxrate=62500 / vbv_bufsize=78125 / nal_hrd=none / filler=0 / ip_ratio=1.10 / aq=1:0.50
  26. Default                                  : Yes
  27. Forced                                   : No
  28. Color range                              : Limited
  29. Color primaries                          : BT.709
  30. Transfer characteristics                 : BT.709
  31. Matrix coefficients                      : BT.709

  32. Audio
  33. ID                                       : 2
  34. Format                                   : DTS
  35. Format/Info                              : Digital Theater Systems
  36. Codec IM                                 : I5QAYOL9X6A8XZ
  37. Codec ID                                 : A_DTS
  38. Duration                                 : 1 h 48 min
  39. Bit rate mode                            : Constant
  40. Bit rate                                 : 1 509 kb/s
  41. Channel(s)                               : 2 channels
  42. Channel positions                        : Front: L R
  43. Sampling rate                            : 48.0 kHz
  44. Frame rate                               : 93.750 FPS (512 SPF)
  45. Bit depth                                : 24 bits
  46. Compression mode                         : Lossy
  47. Stream size                              : 1.15 GiB (13%)
  48. Title                                    : Stereo
  49. Language                                 : English
  50. Default                                  : Yes
  51. Forced                                   : No

  52. Text #1
  53. ID                                       : 3
  54. Format                                   : PGS
  55. Muxing mode                              : zlib
  56. Codec IM                                 : I5QAYOL9X6A8XZ
  57. Codec ID                                 : S_HDMV/PGS
  58. Codec IM                                 : I5QAYOL9X6A8XZ
  59. Codec ID/Info                            : Picture based subtitle format used on BDs/HD-DVDs
  60. Language                                 : French
  61. Default                                  : No
  62. Forced                                   : No

  63. Text #2
  64. ID                                       : 4
  65. Format                                   : PGS
  66. Muxing mode                              : zlib
  67. Codec IM                                 : I5QAYOL9X6A8XZ
  68. Codec ID                                 : S_HDMV/PGS
  69. Codec IM                                 : I5QAYOL9X6A8XZ
  70. Codec ID/Info                            : Picture based subtitle format used on BDs/HD-DVDs
  71. Language                                 : French
  72. Default                                  : No
  73. Forced                                   : No

  74. Menu
  75. 00:00:00.000                             : :Chapter 1
  76. 00:10:29.295                             : :Chapter 2
  77. 00:22:52.371                             : :Chapter 3
  78. 00:30:10.809                             : :Chapter 4
  79. 00:39:12.350                             : :Chapter 5
  80. 00:48:58.936                             : :Chapter 6
  81. 00:57:45.796                             : :Chapter 7
  82. 01:06:46.002                             : :Chapter 8
  83. 01:21:05.194                             : :Chapter 9
  84. 01:31:50.839                             : :Chapter 10
  85. 01:40:16.010                             : :Chapter 11
复制代码


精彩剧照

血溅摩天楼/海市蜃楼 Mirage.1965.1080p.BluRay.x264.DTS-DiVULGED 8.83GB-2.png 血溅摩天楼/海市蜃楼 Mirage.1965.1080p.BluRay.x264.DTS-DiVULGED 8.83GB-3.png 血溅摩天楼/海市蜃楼 Mirage.1965.1080p.BluRay.x264.DTS-DiVULGED 8.83GB-4.png

蓝光高清网提示您 点击下方附件名称 马上开始下载

Mirage.1965.1080p.BluRay.x264.DTS-DiVULGED.torrent ( 88.78 KB )



温馨提示:
本站资源优先使用迅雷下载,迅雷会员下载,速度基本可以跑满宽带
如果遇到无资源或者版权问题无法下载,推荐使用115网盘离线下载(点击查看115网盘离线下载教程


加入蓝光高清网VIP会员  无限制下载本站所有资源---点这里

资源下载、资源播放、字幕使用、无法下载等常见问题---点这里
回复

使用道具 举报

全部回复0 显示全部楼层

声明:您在社区发表的所有信息仅代表用户个人观点,与本网站立场无关,希望各位烧友理性发言,不发表违法国家法律禁止的话题。

您需要登录后才可以回帖 登录 | 立即注册

本版积分规则

联系客服 关注微信 下载APP 返回顶部 返回列表