蓝光高清网

搜索
开启左侧

[恐怖] 活死人的咒语/女魔复仇记 The.Demoniacs.1974.REMASTERED.1080p.BluRay.x264-CREEPSHOW 9.83GB

蓝鸟 发表于 2019-9-4 14:36:16 | 显示全部楼层 |阅读模式 来自: 中国重庆
活死人的咒语/女魔复仇记 The.Demoniacs.1974.REMASTERED.1080p.BluRay.x264-CREEPSHOW 9.83GB-1.jpg
◎译  名 活死人的咒语/女魔复仇记
◎片  名 Démoniaques, Les
◎年  代 1974
◎产  地 法国/比利时
◎类  别 恐怖
◎语  言 法语
◎上映日期 1974-12-05
◎IMDb评分  5.4/10 from 876 users
◎IMDb链接  https://www.imdb.com/title/tt0070013/
◎豆瓣评分 5.6/10 from 97 users
◎豆瓣链接 https://movie.douban.com/subject/1308604/
◎片  长 USA: 95 分钟(DVD)
◎导  演 让·洛林 Jean Rollin
◎主  演 Jo?lle Coeur
      威利·布拉克 Willy Braque
      Paul Bisciglia
      Mireille Dargent
      莫妮卡.苏雯森 Monica Swinn
      Lieva Lone
      Louise Dhour

◎简  介

  在一个小岛上,有一伙横行霸道的海盗。他们用计使一艘客船在小岛附近沉没,他们开始抢劫船上的金银珠宝,不久从海中游来了两名逃难的女子,她们正好和海盗们碰头了。海盗中的两名成员将两名女子强暴后殴打致死,而海盗船长也和她的情妇在岩石上做爱。
  不久,那个船长在酒吧里总是看到两名女子的鬼魂来回飘荡,精神恍惚,几乎到了崩溃的边缘。酒吧里的人说在码头附近看到两名女鬼游荡,船长伙同情妇及其他船员前去调查,原来两个女子并没有死,而是追被逃离这个小岛。这伙海盗当然不罢休,还要继续追杀她们。她们最后逃到了小岛附近的一个几百年没人敢去的魔鬼胜地,这里似乎蕴藏着更大的秘密……
  法国情色名导让洛林(Rean Rollin)1973年的超级经典代表作!!


该资源信息参数

  1. Video
  2. ID                                       : 1
  3. Format                                   : AVC
  4. Format/Info                              : Advanced Video Codec
  5. Format profile                           : High@L4.1
  6. Format settings                          : CABAC / 4 Ref Frames
  7. Format settings, CABAC                   : Yes
  8. Format settings, RefFrames               : 4 frames
  9. Codec IM                                 : I5QAYOL9X6A8XZ
  10. Codec ID                                 : V_MPEG4/ISO/AVC
  11. Duration                                 : 1 h 43 min
  12. Bit rate                                 : 12.1 Mb/s
  13. Width                                    : 1 920 pixels
  14. Height                                   : 1 080 pixels
  15. Display aspect ratio                     : 16:9
  16. Frame rate mode                          : Constant
  17. Frame rate                               : 23.976 (24000/1001) FPS
  18. Color space                              : YUV
  19. Chroma subsampling                       : 4:2:0
  20. Bit depth                                : 8 bits #32342
  21. Scan type                                : Progressive
  22. Bits/(Pixel*Frame)                       : 0.244
  23. Stream size                              : 8.74 GiB (89%)
  24. Writing library                          : x264 core 155 r2901 7d0ff22
  25. Encoding settings                        : cabac=1 / ref=4 / deblock=1:-2:-2 / analyse=0x3:0x133 / me=umh / subme=9 / psy=1 / psy_rd=1.00:0.00 / mixed_ref=1 / me_range=16 / chroma_me=1 / trellis=2 / 8x8dct=1 / cqm=0 / deadzone=21,11 / fast_pskip=0 / chroma_qp_offset=-2 / threads=12 / lookahead_threads=1 / sliced_threads=0 / nr=0 / decimate=1 / interlaced=0 / bluray_compat=0 / constrained_intra=0 / bframes=3 / b_pyramid=2 / b_adapt=2 / b_bias=0 / direct=3 / weightb=1 / open_gop=0 / weightp=2 / keyint=240 / keyint_min=23 / scenecut=40 / intra_refresh=0 / rc_lookahead=50 / rc=2pass / mbtree=1 / bitrate=12141 / ratetol=1.0 / qcomp=0.60 / qpmin=0 / qpmax=69 / qpstep=4 / cplxblur=20.0 / qblur=0.5 / vbv_maxrate=62500 / vbv_bufsize=78125 / nal_hrd=none / filler=0 / ip_ratio=1.40 / aq=1:0.70
  26. Default                                  : Yes
  27. Forced                                   : No

  28. Audio
  29. ID                                       : 2
  30. Format                                   : DTS
  31. Format/Info                              : Digital Theater Systems
  32. Mode                                     : 16
  33. Format settings, Endianness              : Big
  34. Codec IM                                 : I5QAYOL9X6A8XZ
  35. Codec ID                                 : A_DTS
  36. Duration                                 : 1 h 43 min
  37. Bit rate mode                            : Constant
  38. Bit rate                                 : 1 509 kb/s
  39. Channel(s)                               : 2 channels
  40. Channel positions                        : Front: L R
  41. Sampling rate                            : 48.0 kHz
  42. Frame rate                               : 93.750 FPS (512 SPF)
  43. Bit depth                                : 24 bits
  44. Compression mode                         : Lossy
  45. Stream size                              : 1.09 GiB (11%)
  46. Language                                 : French
  47. Default                                  : Yes
  48. Forced                                   : No

  49. Text
  50. ID                                       : 3
  51. Format                                   : UTF-8
  52. Codec IM                                 : I5QAYOL9X6A8XZ
  53. Codec ID                                 : S_TEXT/UTF8
  54. Codec IM                                 : I5QAYOL9X6A8XZ
  55. Codec ID/Info                            : UTF-8 Plain Text
  56. Duration                                 : 1 h 40 min
  57. Bit rate                                 : 17 b/s
  58. Count of elements                        : 431
  59. Stream size                              : 13.3 KiB (0%)
  60. Language                                 : English
  61. Default                                  : Yes
  62. Forced                                   : No

  63. Menu
  64. 00:00:00.000                             : en:00:00:00.000
  65. 00:08:54.534                             : en:00:08:54.534
  66. 00:15:56.956                             : en:00:15:56.956
  67. 00:29:36.775                             : en:00:29:36.775
  68. 00:39:06.344                             : en:00:39:06.344
  69. 00:43:13.591                             : en:00:43:13.591
  70. 00:52:19.136                             : en:00:52:19.136
  71. 00:59:20.557                             : en:00:59:20.557
  72. 01:07:13.029                             : en:01:07:13.029
  73. 01:18:35.711                             : en:01:18:35.711
  74. 01:25:45.140                             : en:01:25:45.140
  75. 01:31:26.481                             : en:01:31:26.481
复制代码


精彩剧照

活死人的咒语/女魔复仇记 The.Demoniacs.1974.REMASTERED.1080p.BluRay.x264-CREEPSHOW 9.83GB-2.jpg

蓝光高清网提示您 点击下方附件名称 马上开始下载

The.Demoniacs.1974.REMASTERED.1080p.BluRay.x264-CREEPSHOW.torrent ( 98.87 KB )



温馨提示:
本站资源优先使用迅雷下载,迅雷会员下载,速度基本可以跑满宽带
如果遇到无资源或者版权问题无法下载,推荐使用115网盘离线下载(点击查看115网盘离线下载教程


加入蓝光高清网VIP会员  无限制下载本站所有资源---点这里

资源下载、资源播放、字幕使用、无法下载等常见问题---点这里
回复

使用道具 举报

全部回复0 显示全部楼层

声明:您在社区发表的所有信息仅代表用户个人观点,与本网站立场无关,希望各位烧友理性发言,不发表违法国家法律禁止的话题。

您需要登录后才可以回帖 登录 | 立即注册

本版积分规则

联系客服 关注微信 下载APP 返回顶部 返回列表