蓝光高清网

搜索
开启左侧

[历史] 塞班岛之战.Battle.for.Saipan.2022.1080p.BluRay.x264-GUACAMOLE 6.50GB

蓝鸟 发表于 7 天前 | 显示全部楼层 |阅读模式 来自: 中国重庆

塞班岛之战.Battle.for.Saipan.2022.1080p.BluRay.x264-GUACAMOLE 6.50GB

塞班岛之战.Battle.for.Saipan.2022.1080p.BluRay.x264-GUACAMOLE 6.50GB


译  名 塞班岛之战 / 血战塞班岛
片  名 Battle for Saipan
年  代 2022
产  地 美国
类  别 历史 / 战争
语  言 英语
上映日期 2022-11-25(美国)
IMDb评星  ★★★★★☆☆☆☆☆
IMDb评分  5.2/10 from 415 users
演  员 詹妮佛·温格尔 / Jennifer Wenger
      德瓦尼·平 / Devanny Pinn
编  剧 布兰登·萨拉格尔 / Brandon Slagle

简  介

卡斯珀·范·迪恩(《阿丽塔:战斗天使》)和路易斯·曼德勒(《兰博:最后的血》)主演了这部二战史诗的边缘。1944年7月7日,位于塞班岛偏远地区的一家美国陆军医院遭到日军的无情袭击。一名孤独的医务人员(范·迪恩饰)在敌人的包围下,全副武装,带领一队受伤的战士前往安全地带。

影片参数
  1. Video
  2. ID : 1
  3. Format : AVC
  4. Format/Info : Advanced Video Codec
  5. Format profile : [email protected]
  6. Format settings : CABAC / 5 Ref Frames
  7. Format settings, CABAC : Yes
  8. Format settings, Reference frames : 5 frames
  9. Codec ID : V_MPEG4/ISO/AVC
  10. Duration : 1 h 34 min
  11. Bit rate : 7 953 kb/s
  12. Width : 1 920 pixels
  13. Height : 816 pixels
  14. Display aspect ratio : 2.35:1
  15. Frame rate mode : Constant
  16. Frame rate : 23.976 (24000/1001) FPS
  17. Color space : YUV
  18. Chroma subsampling : 4:2:0
  19. Bit depth : 8 bits
  20. Scan type : Progressive
  21. Bits/(Pixel*Frame) : 0.212
  22. Stream size : 5.25 GiB (81%)
  23. Writing library : x264 core 164 r3106 eaa68fa
  24. Encoding settings : cabac=1 / ref=5 / deblock=1:-3:-3 / analyse=0x3:0x133 / me=umh / subme=9 / psy=1 / psy_rd=1.00:0.00 / mixed_ref=1 / me_range=16 / chroma_me=1 / trellis=2 / 8x8dct=1 / cqm=0 / deadzone=21,11 / fast_pskip=0 / chroma_qp_offset=-2 / threads=24 / lookahead_threads=2 / sliced_threads=0 / nr=0 / decimate=1 / interlaced=0 / bluray_compat=0 / constrained_intra=0 / bframes=3 / b_pyramid=2 / b_adapt=2 / b_bias=0 / direct=3 / weightb=1 / open_gop=0 / weightp=2 / keyint=250 / keyint_min=23 / scenecut=40 / intra_refresh=0 / rc_lookahead=60 / rc=crf / mbtree=1 / crf=17.0 / qcomp=0.60 / qpmin=0 / qpmax=69 / qpstep=4 / ip_ratio=1.40 / aq=3:1.00
  25. Default : Yes
  26. Forced : No
  27. Color range : Limited
  28. Matrix coefficients : BT.709
  29. Audio
  30. ID : 2
  31. Format : DTS XLL
  32. Format/Info : Digital Theater Systems
  33. Commercial name : DTS-HD Master Audio
  34. Codec ID : A_DTS
  35. Duration : 1 h 34 min
  36. Bit rate mode : Variable
  37. Bit rate : 1 874 kb/s
  38. Channel(s) : 6 channels
  39. Channel layout : C L R Ls Rs LFE
  40. Sampling rate : 48.0 kHz
  41. Frame rate : 93.750 FPS (512 SPF)
  42. Bit depth : 16 bits
  43. Compression mode : Lossless
  44. Stream size : 1.24 GiB (19%)
  45. Language : English
  46. Default : Yes
  47. Forced : No
  48. Text #1
  49. ID : 3
  50. Format : UTF-8
  51. Codec ID : S_TEXT/UTF8
  52. Codec ID/Info : UTF-8 Plain Text
  53. Duration : 56 min 23 s
  54. Bit rate : 0 b/s
  55. Count of elements : 5
  56. Stream size : 173 Bytes (0%)
  57. Language : English
  58. Default : Yes
  59. Forced : Yes
  60. Text #2
  61. ID : 4
  62. Format : PGS
  63. Muxing mode : zlib
  64. Codec ID : S_HDMV/PGS
  65. Codec ID/Info : Picture based subtitle format used on BDs/HD-DVDs
  66. Duration : 56 min 23 s
  67. Bit rate : 265 b/s
  68. Count of elements : 10
  69. Stream size : 110 KiB (0%)
  70. Language : English
  71. Default : No
  72. Forced : No
  73. Text #3
  74. ID : 5
  75. Format : PGS
  76. Muxing mode : zlib
  77. Codec ID : S_HDMV/PGS
  78. Codec ID/Info : Picture based subtitle format used on BDs/HD-DVDs
  79. Duration : 1 h 27 min
  80. Bit rate : 26.8 kb/s
  81. Count of elements : 1428
  82. Stream size : 16.8 MiB (0%)
  83. Language : German
  84. Default : No
  85. Forced : No
  86. Menu
  87. 00:00:00.000 : 00:00:00.000
  88. 00:08:46.443 : 00:08:46.443
  89. 00:16:56.557 : 00:16:56.557
  90. 00:25:59.266 : 00:25:59.266
  91. 00:33:07.110 : 00:33:07.110
  92. 00:41:33.741 : 00:41:33.741
  93. 00:48:33.035 : 00:48:33.035
  94. 00:57:04.129 : 00:57:04.129
  95. 01:05:40.687 : 01:05:40.687
  96. 01:13:37.872 : 01:13:37.872
  97. 01:20:08.721 : 01:20:08.721
  98. 01:27:17.732 : 01:27:17.732
复制代码

塞班岛之战.Battle.for.Saipan.2022.1080p.BluRay.x264-GUACAMOLE 6.50GB

塞班岛之战.Battle.for.Saipan.2022.1080p.BluRay.x264-GUACAMOLE 6.50GB



蓝光高清网提示您 点击下方附件即可下载

塞班岛之战.Battle.for.Saipan.2022.1080p.BluRay.x264-GUACAMOLE 6.50GB

Battle.for.Saipan.2022.1080p.BluRay.x264-GUACAMOLE.torrent ( 16.96 KB )

加入蓝光高清网VIP会员  无限制下载本站所有资源---点这里

资源下载、资源播放、字幕使用、无法下载等常见问题---点这里
回复

使用道具 举报

全部回复0 显示全部楼层

声明:您在社区发表的所有信息仅代表用户个人观点,与本网站立场无关,希望各位烧友理性发言,不发表违法国家法律禁止的话题。

您需要登录后才可以回帖 登录 | 立即注册

本版积分规则

联系客服 关注微信 下载APP 返回顶部 返回列表